Loading...
Error

Щитомордник / Copperhead (Рональд Ф. Максвелл / Ronald F. Maxwell) [2013, США, драма, WEB-DLRip] VO

Статистика раздачи
Размер:  1,46 GB   |    Зарегистрирован:  3 года 4 месяца   |    Скачан:  19 раз

Полного источника не было: 2 года 10 месяцев

Сидов:  0  |  0 KB/s  ]   Личеров:  0  |  0 KB/s  ]

* - сиды/пиры с внешних источников

   
 
Автор Сообщение

sertyewsssss 

19-Июл-2013 05:49

Щитомордник / Copperhead

Страна: США
Жанр: драма
Год выпуска: 2013
Продолжительность: 02:00:06
Перевод: Одноголосый закадровый А. Белоконский
Cубтитры: нет
Оригинальная аудиодорожка: нет
Режиссер: Рональд Ф. Максвелл / Ronald F. Maxwell
В ролях: Франсуа Арно, Люси Бойнтон, Билл Кэмпбелл, Райан Дусетте, Брайан Дауни, Род Эрнест, Питер Фонда
Описание: История происходит во время американской гражданской войны 1861-1865. Авенир Бук, упрямый и праведный фермер из штата Нью-Йорк, бросает вызов своим соседям.

Качество видео: WEB-DLRip
Формат видео: AVI
Видео: 720x304 (2.37:1), 23.976 fps, XviD build 50 ~1348 kbps avg, 0.26 bit/pixel
Аудио: Russian ( 48 kHz, AC3 Dolby Digital, 3/2 (L,C,R,l,r) + LFE ch, ~384 kbps )


Общее
Полное имя : F:Shitomordnik.2013.WEB-DLRip.avi
Формат : AVI
Формат/Информация : Audio Video Interleave
Размер файла : 1,46 Гбайт
Продолжительность : 2 ч. 0 м.
Общий поток : 1742 Кбит/сек
Программа кодирования : VirtualDubMod 1.5.10.2 (build 2540/release)
Библиотека кодирования : VirtualDubMod build 2540/release

Видео
Идентификатор : 0
Формат : MPEG-4 Visual
Профиль формата : Advanced Simple@L5
Параметр BVOP формата : 2
Параметр QPel формата : Нет
Параметр GMC формата : Без точки перехода
Параметр матрицы формата : Default (MPEG)
Идентификатор кодека : XVID
Идентификатор кодека/Подсказка : XviD
Продолжительность : 2 ч. 0 м.
Битрейт : 1349 Кбит/сек
Ширина : 720 пикс.
Высота : 304 пикс.
Соотношение сторон : 2,35:1
Частота кадров : 23,976 кадр/сек
Цветовое пространство : YUV
Подвыборка цветности : 4:2:0
Битовая глубина : 8 бит
Тип развёртки : Прогрессивная
Метод сжатия : С потерями
Бит/(Пиксели*Кадры) : 0.257
Размер потока : 1,13 Гбайт (77%)
Библиотека кодирования : XviD 1.2.1 (UTC 2008-12-04)

Аудио
Идентификатор : 1
Формат : AC-3
Формат/Информация : Audio Coding 3
Расширение режима : CM (complete main)
Идентификатор кодека : 2000
Продолжительность : 2 ч. 0 м.
Вид битрейта : Постоянный
Битрейт : 384 Кбит/сек
Каналы : 6 каналов
Расположение каналов : Front: L C R, Side: L R, LFE
Частота : 48,0 КГц
Битовая глубина : 16 бит
Метод сжатия : С потерями
Размер потока : 330 Мбайт (22%)
Выравнивание : Разделение по промежуткам
Продолжительность промежутка : 42 мс. (1,00 видеокадр)
Время предзагрузки промежутка : 500 ms
pic pic pic pic pic
Для увеличения картинки щелкните мышкой по превью

Этот торрент недоступен для скачивания без регистрации, однако доступен по публичной magnet-ссылке (источники с публичных трекеров). Перед использованием ссылки прочтите, пожалуйста Пользовательское соглашение, а также как можно дольше оставайтесь на раздаче! Для того, чтобы скачать сам торрент-файл (который видит больше источников), а также для того, чтобы поблагодарить релизера, вам необходимо зарегистрироваться. Если регистрироваться лень - вы можете также попробовать скачать релиз по нашим партнерским ссылкам ниже.

[underverse.su].t29336.torrent
Трекер: Зарегистрирован   [ 19.07.2013 05:49 ]  

Статус: проверено (by Паукан at 19.07.2013 09:22)
Поблагодарили: 1 человек
Тип торрента: публичный - доступные источники с открытых трекеров: 
Размер: 1,46 GB (занимает 0,33 DVDR, для записи нужно 1 болванка DVDR/RW)
 
 
Похожие темы
Форум Тема Автор Торрент Отв. Посл. сооб.
Зарубежное кино [DVDRip, Low-Res HDRip, и т.д.] Щитомордник / Copperhead (Рональд Ф. Максвелл) [2013 г., драма, WEB-DLRip] VO (Артём Белоконский) 90ytr90
18 | 1

0 | 919

5

27.07.2013 10:53


Яндекс.Метрика powered by Sphinx


В Н И М А Н И Е
Сайт не распространяет и не хранит электронные версии произведений, а лишь бесплатно и без коммерческой выгоды (не требуя взамен платы,
SMS и т.д.) предоставляет доступ к создаваемому пользователями каталогу ссылок на торрент-файлы, которые содержат только списки хеш-сумм.
Убедительная просьба с жалобами обращаться напрямую к пользователю, разместившему торрент файл.

Вверх