Loading...
Error

Порочные игры / Stoker (Пак Чхан Ук) [2013 г., триллер, драма, детектив, BDRip] MVO + Original + Sub (Rus,Ukr,Eng) HQ Underverse

Статистика раздачи
Размер:  2,18 GB   |    Зарегистрирован:  3 года 4 месяца   |    Скачан:  93 раза

Полного источника не было: 1 год 4 месяца

Сидов:  0  |  0 KB/s  ]   Личеров:  0  |  0 KB/s  ]

* - сиды/пиры с внешних источников

   
 
Автор Сообщение

HQ Underverse 

18-Июл-2013 12:11

Порочные игры / Stoker


Год выпуска: 2013
Жанр: триллер, драма, детектив
Страна: Великобритания , США
Режиссер: Пак Чхан Ук
В ролях: Миа Васиковска, Мэттью Гуд, Николь Кидман, Дэвид Элфорд, Пег Аллен, Лорен Э. Роман, Филлис Соммервиль, Хармони Корин, Лукас Тилл, Олден Эйренрайк
Сюжет фильма:
После смерти отца к девушке и её эмоционально неустойчивой матери приезжает их загадочный дядя.

  • Мировая премьера: 20 января 2013

/
Качество видео: BDRip

Продолжительность: 01:38:55
Формат: avi
Видео: XviD, 720x304, 2234 kbps
Аудио #1: русский, многоголосый закадровый [профессиональный], AC3 5.1, 448 kbps
Аудио #2: английский, оригинал, AC3 5.1, 448 kbps
Субтитры #1: внешние, SRT, украинский
Субтитры #2: внешние, SRT, английский
Субтитры #3: внешние, SRT, русский

Код:

General
Complete name                    : F:\Порочные игры\Stoker.2013.BDRip.XviD.AC3.Rus.P.Eng.O.HQ.Underverse.avi
Format                           : AVI
Format/Info                      : Audio Video Interleave
Format profile                   : OpenDML
File size                        : 2.18 GiB
Duration                         : 1h 38mn
Overall bit rate                 : 3 148 Kbps
Writing application              : VirtualDubMod 1.5.10.2 (build 2540/release)
Writing library                  : VirtualDubMod build 2540/release

Video
ID                               : 0
Format                           : MPEG-4 Visual
Format profile                   : Streaming Video@L1
Format settings, BVOP            : Yes
Format settings, QPel            : No
Format settings, GMC             : No warppoints
Format settings, Matrix          : Custom
Muxing mode                      : Packed bitstream
Codec ID                         : XVID
Codec ID/Hint                    : XviD
Duration                         : 1h 38mn
Bit rate                         : 2 234 Kbps
Width                            : 720 pixels
Height                           : 304 pixels
Display aspect ratio             : 2.35
Frame rate                       : 23.976 fps
Resolution                       : 24 bits
Colorimetry                      : 4:2:0
Scan type                        : Progressive
Bits/(Pixel*Frame)               : 0.426
Stream size                      : 1.54 GiB (71%)
Writing library                  : XviD 64

Audio #1
ID                               : 1
Format                           : AC-3
Format/Info                      : Audio Coding 3
Codec ID                         : 2000
Duration                         : 1h 38mn
Bit rate mode                    : Constant
Bit rate                         : 448 Kbps
Channel(s)                       : 6 channels
Channel positions                : Front: L C R, Surround: L R, LFE
Sampling rate                    : 48.0 KHz
Stream size                      : 317 MiB (14%)
Alignment                        : Split accross interleaves
Interleave, duration             : 42 ms (1.00 video frame)
Interleave, preload duration     : 500 ms

Audio #2
ID                               : 2
Format                           : AC-3
Format/Info                      : Audio Coding 3
Codec ID                         : 2000
Duration                         : 1h 38mn
Bit rate mode                    : Constant
Bit rate                         : 448 Kbps
Channel(s)                       : 6 channels
Channel positions                : Front: L C R, Surround: L R, LFE
Sampling rate                    : 48.0 KHz
Stream size                      : 317 MiB (14%)
Alignment                        : Split accross interleaves
Interleave, duration             : 42 ms (1.00 video frame)
Interleave, preload duration     : 500 ms

Релиз группы:

picpicpic
Для увеличения картинки щелкните мышкой по превью

Этот торрент недоступен для скачивания без регистрации, однако доступен по публичной magnet-ссылке (источники с публичных трекеров). Перед использованием ссылки прочтите, пожалуйста Пользовательское соглашение, а также как можно дольше оставайтесь на раздаче! Для того, чтобы скачать сам торрент-файл (который видит больше источников), а также для того, чтобы поблагодарить релизера, вам необходимо зарегистрироваться. Если регистрироваться лень - вы можете также попробовать скачать релиз по нашим партнерским ссылкам ниже.

[underverse.su].t29322.torrent
Трекер: Зарегистрирован   [ 18.07.2013 12:11 ]  

Статус: проверено (by HQ Underverse at 18.07.2013 12:11)
Поблагодарили: 6 человек
Тип торрента: публичный - доступные источники с открытых трекеров: 
Размер: 2,18 GB (занимает 1/2 DVDR, для записи нужно 1 болванка DVDR/RW)
 
 
Похожие темы
Форум Тема Автор Торрент Отв. Посл. сооб.
Зарубежное кино [DVDRip, Low-Res HDRip, и т.д.] Порочные игры / Stoker (Пак Чхан Ук / Park Chan Wook) [2013 г., триллер, драма, детектив, HDRip] MVO Паукан
2 | 0

1 | 1096

55

15.08.2013 15:23

Зарубежное кино [DVD / HDDVD / BD / Remux] Порочные игры / Стокеры / Stoker (Пак Чхан Ук / Park Chan Wook) [2013, Великобритания, США, триллер, драма, детектив, BDRemux 1080p] MVO + 2х AVO (Сербин, Дольский) + 2х VO (Doctor Joker, den904) +... uzi2009
2 | 0

0 | 1389

8

02.04.2014 17:06

Зарубежное кино [HDDVDRip / BDRip / WEB-DL / HDTV 1080/720р] Порочные игры / Stoker (Пак Чхан Ук / Park Chan Wook) [2013 г., триллер, драма, детектив, BDRip 720р] Original (Eng) + VO (den904) + Sub (Eng) Доктор Ватсон
3 | 0

3 | 574

30

09.06.2013 10:08

Зарубежное кино [HDDVDRip / BDRip / WEB-DL / HDTV 1080/720р] Порочные игры / Stoker (Пак Чхан Ук) [2013 г., Триллер, Драма, Детектив BDRip 720p] MVO (Rus) + AVO (Rus, Ю. Сербин) + AVO (Rus, А. Дольский) + Original (Eng) + Subs (Rus, Eng, Ukr) Ведьмочка
1 | 0

0 | 874

8

09.07.2014 12:44


Яндекс.Метрика powered by Sphinx


В Н И М А Н И Е
Сайт не распространяет и не хранит электронные версии произведений, а лишь бесплатно и без коммерческой выгоды (не требуя взамен платы,
SMS и т.д.) предоставляет доступ к создаваемому пользователями каталогу ссылок на торрент-файлы, которые содержат только списки хеш-сумм.
Убедительная просьба с жалобами обращаться напрямую к пользователю, разместившему торрент файл.

Вверх