Loading...
Error

«Семья алкоголика» / Серии: 1-5 [ 5+бонус ] (Андрей Крупин) [2013 г., Комедия, WEBRip]

Статистика раздачи
Размер:  830 MB   |    Зарегистрирован:  3 года 4 месяца   |    Скачан:  28 раз

Полного источника не было: 10 дней

Сидов:  0  |  0 KB/s  ]   Личеров:  0  |  0 KB/s  ]

* - сиды/пиры с внешних источников

   
 
Автор Сообщение

nemos Пол:Муж

18-Июл-2013 06:45


Семья алкоголика


Год выпуска: 2013
Жанр: Комедия
Страна: Россия
Режиссер: Андрей Крупин
В ролях: Серёга Кудряшов, Татьяна Голубева, Денис Усин, Сергей Ровин, Светлана Якина
Сюжет фильма:
Сериал «Семья алкоголика». Рассказывает про не вполне обычную семью. Отец семейства — алкоголик, сын — гомосексуалист, жена — отъявленная клептоманка, а дочь в КПЗ.
Качество видео: WEBRip

Продолжительность: 00:12:41 серия
Видео: MPEG-4 AVC, 1280x720, 1 627kbps
Аудио: русский, AAC, 192 kbps
Внимание! В озвучке используется матерная лексика.

Код:

F:\С underverse-3 Фильмы\Semya_alkogolika\Semya alkogolika.5 seriya(720p).mp4
   General
      Complete name : F:\С underverse-3 Фильмы\Semya_alkogolika\Semya alkogolika.5 seriya(720p).mp4
      Format : MPEG-4
      Format profile : Base Media / Version 2
      Codec ID : mp42
      File size : 165 MiB
      Duration : 12mn 41s
      Overall bit rate mode : Variable
      Overall bit rate : 1 822 Kbps
      Encoded date : UTC 2012-11-03 21:30:38
      Tagged date : UTC 2012-11-03 21:30:38
      gsst : 0
      gstd : 762148
      gssd : B2EE8CF49HH1352110998660340
      gshh : o-o---preferred---sn-hxb54vo-304e---v22---lscache8.c.youtube.com
   Video #1
      ID : 1
      Format : AVC
      Format/Info : Advanced Video Codec
      Format profile : High@L3.1
      Format settings, CABAC : Yes
      Format settings, ReFrames : 1 frame
      Codec ID : avc1
      Codec ID/Info : Advanced Video Coding
      Duration : 12mn 41s
      Bit rate : 1 627 Kbps
      Maximum bit rate : 4 677 Kbps
      Width : 1 280 pixels
      Height : 720 pixels
      Display aspect ratio : 16:9
      Frame rate mode : Constant
      Frame rate : 25.000 fps
      Color space : YUV
      Chroma subsampling : 4:2:0
      Bit depth : 8 bits
      Scan type : Progressive
      Bits/(Pixel*Frame) : 0.071
      Stream size : 148 MiB (89%)
      Tagged date : UTC 2012-11-03 21:30:39
   Audio #2
      ID : 2
      Format : AAC
      Format/Info : Advanced Audio Codec
      Format profile : LC
      Codec ID : 40
      Duration : 12mn 41s
      Bit rate mode : Variable
      Bit rate : 192 Kbps
      Maximum bit rate : 202 Kbps
      Channel(s) : 2 channels
      Channel positions : Front: L R
      Sampling rate : 44.1 KHz
      Compression mode : Lossy
      Stream size : 17.4 MiB (11%)
      Title : IsoMedia File Produced by Google, 5-11-2011
      Encoded date : UTC 2012-11-03 21:30:39
      Tagged date : UTC 2012-11-03 21:30:39
Семпл: http://multi-up.com/885626

Релиз группы:

picpicpicpicpicpicpicpicpicpicpicpicpicpicpic
Для увеличения картинки щелкните мышкой по превью
Сериал который был выложен и зарегистрирован более двух месяцев назад буду раздавать с 23.00ч до 06.00ч утра ( вина в этом немоя, а пользователей которые неподдерживают раздачу)

Этот торрент недоступен для скачивания без регистрации, однако доступен по публичной magnet-ссылке (источники с публичных трекеров). Перед использованием ссылки прочтите, пожалуйста Пользовательское соглашение, а также как можно дольше оставайтесь на раздаче! Для того, чтобы скачать сам торрент-файл (который видит больше источников), а также для того, чтобы поблагодарить релизера, вам необходимо зарегистрироваться. Если регистрироваться лень - вы можете также попробовать скачать релиз по нашим партнерским ссылкам ниже.

[underverse.su].t29313.torrent
Трекер: Зарегистрирован   [ 18.07.2013 06:45 ]  

Статус: проверено (by Чертёнок at 18.07.2013 10:02)
Поблагодарили: 1 человек
Тип торрента: публичный - доступные источники с открытых трекеров: 
Размер: 830 MB (занимает 0,19 DVDR, для записи нужно 1 болванка DVDR/RW)
 
 

Яндекс.Метрика powered by Sphinx


В Н И М А Н И Е
Сайт не распространяет и не хранит электронные версии произведений, а лишь бесплатно и без коммерческой выгоды (не требуя взамен платы,
SMS и т.д.) предоставляет доступ к создаваемому пользователями каталогу ссылок на торрент-файлы, которые содержат только списки хеш-сумм.
Убедительная просьба с жалобами обращаться напрямую к пользователю, разместившему торрент файл.

Вверх