Loading...
Error

Прикуп / The Take [TV Mini-Series] (Дэвид Друри) [2009 г., драма, криминал, триллер, BDRip] AVO [Ю. Сербин] + Original + Sub (Rus)

Статистика раздачи
Размер:  3,75 GB   |    Зарегистрирован:  3 года 4 месяца   |    Скачан:  23 раза
Сидов:  1  |  0 KB/s  ]   Личеров:  0  |  0 KB/s  ]

* - сиды/пиры с внешних источников

   
 
Автор Сообщение

Паукан Пол:Муж

15-Июл-2013 13:23

Прикуп / The Take [TV Mini-Series]


Название: Прикуп
Оригинальное название: The Take
Год выпуска: 2009
Жанр: Драма, криминал, триллер
Режиссер: Дэвид Друри
В ролях: Шон Эванс, Том Харди, Шарлотта Райли, Кирстон Вэрэйнг, Марго Лейкестер, Брайан Кокс, Джейн Вуд, Стив Николсон, Джон Эштон, Меган Джосса Аннетт Келли, Сара Стюарт, Макдара Джойс, Сэмми Уильямс, Дженни Кэвэна, Сэм Винчент, Николас Дэй, Гари Мерфи, Марк Хубермэн, Элли О’Кейн О’Рейли, Дэвид Скофилд, Эмма Пайк, Джэми МакКенна, Хейли Уордл, Имон Джехеган, Дебора Вайсман, Стефен Д’Арси, Эммет Кирван, Челси О’Тул, Ниам Шоу, Дин Бардини, Рита Эвелин Смит, Марк Фиш

О фильме: Экранизация одного из бестселлеров известной британской писательницы Мартины Коул. «Прикуп» - это захватывающая драма о любви, власти, ревности и предательстве. Фредди Джексон (Том Харди) только что вышел из тюрьмы. Он отсидел срок, наладил нужные связи и теперь готов вместе со своим преданным кузеном Джимми (Шон Эванс) бросить вызов всему миру, не останавливаясь ни перед кем и ни перед чем.



Страна: Великобритания
Студия: Company Pictures, Element Pictures, Irish Film Board
Продолжительность: 02:53:05
Перевод: Авторский одноголосый (Ю. Сербин)

Файл
Кодек: x264
Качество: BDRip (AVC)
Видео: MPEG-4 AVC, 2200 Кбит/c, 1024x576, 25.000 кадр/c
Аудио #1: Русский (AC3, 6 ch, 448 Кбит/c) / Ю. Сербин
Аудио #2: Английский (AC3, 6 ch, 448 Кбит/c)
Субтитры: Русские

Семпл
---[Information] [28.06.2013 19:44:40] x264 [info]: frame I:2061 Avg QP:15.22 size: 65299
---[Information] [28.06.2013 19:44:40] x264 [info]: frame P:56067 Avg QP:18.32 size: 23913
---[Information] [28.06.2013 19:44:40] x264 [info]: frame B:201512 Avg QP:19.45 size: 6850
____________________________________________________________________________________________
Общее
Уникальный идентификатор : 228982398817886401796096675003801552111 (0xAC4467E69418F4389DF2048CADD044EF)
Полное имя : D:Mои раздачиPrikup.2009.BDRip.(AVC)-MediaClub.mkv
Формат : Matroska
Версия формата : Version 2
Размер файла : 3,75 Гбайт
Продолжительность : 2 ч. 53 м.
Общий поток : 3098 Кбит/сек
Название фильма : Прикуп (MediaClub-kaspr)
Дата кодирования : UTC 2013-06-28 16:49:33
Программа кодирования : mkvmerge v5.7.0 ('The Whirlwind') built on Aug 7 2012 14:11:40
Библиотека кодирования : libebml v1.2.3 + libmatroska v1.3.0

Видео
Идентификатор : 1
Формат : AVC
Формат/Информация : Advanced Video Codec
Профиль формата : High@L4.1
Параметр CABAC формата : Да
Параметр ReFrames формата : 9 кадров
Идентификатор кодека : V_MPEG4/ISO/AVC
Битрейт : 2200 Кбит/сек
Ширина : 1024 пикселя
Высота : 576 пикселей
Соотношение сторон : 16:9
Режим частоты кадров : Переменный
Частота кадров в оригинале : 25,000 кадров/сек
Цветовое пространство : YUV
Субдискретизация насыщенности : 4:2:0
Битовая глубина : 8 бит
Тип развёртки : Прогрессивная
Бит/(Пиксели*Кадры) : 0.149
Заголовок : Прикуп (MediaClub-kaspr)
Библиотека кодирования : x264 core 133 r2334 a3ac64b
Настройки программы : cabac=1 / ref=9 / deblock=1:-3:-3 / analyse=0x3:0x133 / me=umh / subme=11 / psy=1 / psy_rd=1.00:0.10 / mixed_ref=1 / me_range=32 / chroma_me=1 / trellis=2 / 8x8dct=1 / cqm=0 / deadzone=21,11 / fast_pskip=0 / chroma_qp_offset=-3 / threads=12 / lookahead_threads=3 / sliced_threads=0 / nr=0 / decimate=0 / interlaced=0 / bluray_compat=0 / constrained_intra=0 / bframes=10 / b_pyramid=2 / b_adapt=2 / b_bias=0 / direct=3 / weightb=1 / open_gop=0 / weightp=2 / keyint=250 / keyint_min=23 / scenecut=40 / intra_refresh=0 / rc=2pass / mbtree=0 / bitrate=2200 / ratetol=1.0 / qcomp=0.60 / qpmin=0 / qpmax=69 / qpstep=4 / cplxblur=20.0 / qblur=0.5 / ip_ratio=1.40 / pb_ratio=1.30 / aq=1:1.00
Default : Да
Forced : Да

Аудио #1
Идентификатор : 2
Формат : AC-3
Формат/Информация : Audio Coding 3
Расширение режима : CM (complete main)
Параметр Endianness формата : Big
Идентификатор кодека : A_AC3
Продолжительность : 2 ч. 53 м.
Вид битрейта : Постоянный
Битрейт : 448 Кбит/сек
Каналы : 6 каналов
Расположение каналов : Front: L C R, Side: L R, LFE
Частота : 48,0 КГц
Битовая глубина : 16 бит
Метод сжатия : С потерями
Размер потока : 555 Мбайт (14%)
Заголовок : Ю. Сербин
Язык : Russian
Default : Да
Forced : Да

Аудио #2
Идентификатор : 3
Формат : AC-3
Формат/Информация : Audio Coding 3
Расширение режима : CM (complete main)
Параметр Endianness формата : Big
Идентификатор кодека : A_AC3
Продолжительность : 2 ч. 53 м.
Вид битрейта : Постоянный
Битрейт : 448 Кбит/сек
Каналы : 6 каналов
Расположение каналов : Front: L C R, Side: L R, LFE
Частота : 48,0 КГц
Битовая глубина : 16 бит
Метод сжатия : С потерями
Размер потока : 555 Мбайт (14%)
Заголовок : Оригинал
Язык : English
Default : Нет
Forced : Нет

Текст
Идентификатор : 4
Формат : UTF-8
Идентификатор кодека : S_TEXT/UTF8
Идентификатор кодека/Информация : UTF-8 Plain Text
Заголовок : Русские
Язык : Russian
Default : Нет
Forced : Нет

Меню
00:00:00.000 : en:Chapter 01
00:13:57.040 : en:Chapter 02
00:28:26.280 : en:Chapter 03
00:41:09.040 : en:Chapter 04
00:55:00.400 : en:Chapter 05
01:10:10.680 : en:Chapter 06
01:25:50.320 : en:Chapter 07
01:36:07.280 : en:Chapter 08
01:51:21.680 : en:Chapter 09
02:08:08.680 : en:Chapter 10
02:23:33.560 : en:Chapter 11
02:39:44.120 : en:Chapter 12
За исходник спасибо: HDClub
Перевод Юрия Сербина выполнен в рамках сервиса от HDCLUB "Озвучивание". Спонсоры: markinscor, tsar_obezian, sybir, Platov, Dervish, HPotter, olegsoleg, Loki1982, Faulenzer, denismgn1987, xerman13, tide, Pro_Rock_, Luka69, zeleniy, ochkarik1, oleg1980.

pic pic pic
Для увеличения картинки щелкните мышкой по превью

Этот торрент недоступен для скачивания без регистрации, однако доступен по публичной magnet-ссылке (источники с публичных трекеров). Перед использованием ссылки прочтите, пожалуйста Пользовательское соглашение, а также как можно дольше оставайтесь на раздаче! Для того, чтобы скачать сам торрент-файл (который видит больше источников), а также для того, чтобы поблагодарить релизера, вам необходимо зарегистрироваться. Если регистрироваться лень - вы можете также попробовать скачать релиз по нашим партнерским ссылкам ниже.

[underverse.su].t29240.torrent
Трекер: Зарегистрирован   [ 15.07.2013 13:23 ]  

Статус: проверено (by Паукан at 15.07.2013 13:23)
Поблагодарили: 1 человек
Тип торрента: публичный - доступные источники с открытых трекеров: 
Размер: 3,75 GB (занимает 0,86 DVDR, для записи нужно 1 болванка DVDR/RW)
 
 

Яндекс.Метрика powered by Sphinx


В Н И М А Н И Е
Сайт не распространяет и не хранит электронные версии произведений, а лишь бесплатно и без коммерческой выгоды (не требуя взамен платы,
SMS и т.д.) предоставляет доступ к создаваемому пользователями каталогу ссылок на торрент-файлы, которые содержат только списки хеш-сумм.
Убедительная просьба с жалобами обращаться напрямую к пользователю, разместившему торрент файл.

Вверх