Loading...
Error

Деловая женщина / Деловая девушка / Working Girl (Майк Николс) [1988 г., драма, мелодрама, комедия, WEB-DLRip] Dub + MVO + 2xAVO + Sub (Rus,Eng) + Original

Статистика раздачи
Размер:  2,42 GB   |    Зарегистрирован:  3 года 4 месяца   |    Скачан:  4 раза

Полного источника не было: 11 месяцев

Сидов:  0  |  0 KB/s  ]   Личеров:  0  |  0 KB/s  ]

* - сиды/пиры с внешних источников

   
 
Автор Сообщение

Паукан Пол:Муж

15-Июл-2013 13:16

Деловая женщина / Деловая девушка / Working Girl


Название: Деловая женщина / Деловая девушка
Оригинальное название: Working Girl
Год выхода: 1988
Жанр: драма, мелодрама, комедия
Режиссер: Майк Николс
В ролях: Мелани Гриффит, Харрисон Форд, Сигурни Уивер, Алек Болдуин, Джоан Кьюсак, Филип Боско, Нора Данн, Оливер Платт, Джеймс Лэлли, Кевин Спейси, Дэвид Духовны, Олимпия Дукакис, Эми Акино, Джеффри Нордлинг, Элизабет Уиткрафт, Зэк Гренье, Барбара Гэррик, Рики Лейк, Тимоти Кархарт

О фильме:
Предприимчивая нью-йоркская машинистка Тесс Мак-Гилл мечтает о головокружительной карьере. Но на пути к осуществлению мечты стоит серьезная преграда — неумение одеваться, стричься, общаться с нужными людьми. Но иногда судьба дает человеку шанс устроить свою жизнь. Такой шанс получила и Тесс Мак-Гилл, когда ее начальница сломала ногу, отдыхая в Европе. Незамедлительно Тесс занимает ее место, знакомится с биржевым брокером и заключает крупную сделку. Когда отдохнувшая и выздоровевшая начальница возвращается на работу, она понимает, что ее место занято, жених ушел к другой, и существует миллион других мелких неприятностей...



Страна: США
Студия: 20th Century Fox Film Corporation
Продолжительность: 01:53:32
Перевод: Дублированный, профессиональный (многоголосый закадровый), авторский (одноголосый закадровый)

Файл
Кодек: XviD
Качество: WEB-DLRip
Видео: 1636 Кбит/с, 720x400, 23.976 кадр/с

Звук:
• №1: Русский (AC3, 2 ch, 192 Кбит/с) Дублированный
Отдельно:
• №2: Русский (AC3, 6 ch, 384 Кбит/с) Профессиональный многоголосый
• №3: Русский (AC3, 3 ch, 224 Кбит/с) Авторский одноголосый [Андрей Гаврилов]
• №4: Русский (AC3, 3 ch, 224 Кбит/с) Авторский одноголосый [Алексей Михалев]
• №5: Английский (AC3, 5 ch, 384 Кбит/с)

Субтитры: Русские, английские
Полное имя : Delovaja.zhenschina.1988.XviD.WEB-DLRip.avi
Формат : AVI
Формат/Информация : Audio Video Interleave
Размер файла : 1,46 Гбайт
Продолжительность : 1 ч. 53 м.
Общий поток : 1837 Кбит/сек
Программа кодирования : VirtualDubMod 1.5.10.3 | www.virtualdub-fr.org || (build 2550/release)
Библиотека кодирования : VirtualDubMod build 2550/release

Видео
Идентификатор : 0
Формат : MPEG-4 Visual
Профиль формата : Advanced Simple@L5
Параметр BVOP формата : 1
Параметр QPel формата : Нет
Параметр GMC формата : Без точки перехода
Параметр матрицы формата : Выборочная
Идентификатор кодека : XVID
Идентификатор кодека/Подсказка : XviD
Продолжительность : 1 ч. 53 м.
Битрейт : 1636 Кбит/сек
Ширина : 720 пикселей
Высота : 400 пикселей
Соотношение сторон : 16:9
Частота кадров : 23,976 кадра/сек
Цветовое пространство : YUV
Субдискретизация насыщенности : 4:2:0
Битовая глубина : 8 бит
Тип развёртки : Прогрессивная
Метод сжатия : С потерями
Бит/(Пиксели*Кадры) : 0.237
Размер потока : 1,30 Гбайт (89%)
Библиотека кодирования : XviD 64

Аудио
Идентификатор : 1
Формат : AC-3
Формат/Информация : Audio Coding 3
Расширение режима : CM (complete main)
Идентификатор кодека : 2000
Продолжительность : 1 ч. 53 м.
Вид битрейта : Постоянный
Битрейт : 192 Кбит/сек
Каналы : 2 канала
Расположение каналов : Front: L R
Частота : 48,0 КГц
Битовая глубина : 16 бит
Метод сжатия : С потерями
Размер потока : 156 Мбайт (10%)
Выравнивание : Разделение по промежуткам
Продолжительность промежутка : 42 мс. (1,00 видеокадр)
Время предзагрузки промежутка : 500 мс.
pic pic pic
Для увеличения картинки щелкните мышкой по превью

Этот торрент недоступен для скачивания без регистрации, однако доступен по публичной magnet-ссылке (источники с публичных трекеров). Перед использованием ссылки прочтите, пожалуйста Пользовательское соглашение, а также как можно дольше оставайтесь на раздаче! Для того, чтобы скачать сам торрент-файл (который видит больше источников), а также для того, чтобы поблагодарить релизера, вам необходимо зарегистрироваться. Если регистрироваться лень - вы можете также попробовать скачать релиз по нашим партнерским ссылкам ниже.

[underverse.su].t29239.torrent
Трекер: Зарегистрирован   [ 15.07.2013 13:16 ]  

Статус: проверено (by Паукан at 15.07.2013 13:16)
Поблагодарили: пока никто не поблагодарил...
Тип торрента: публичный - доступные источники с открытых трекеров: 
Размер: 2,42 GB (занимает 0,55 DVDR, для записи нужно 1 болванка DVDR/RW)
 
 
Похожие темы
Форум Тема Автор Торрент Отв. Посл. сооб.
Зарубежное кино [DVDRip, Low-Res HDRip, и т.д.] Деловая женщина / Working Girl (Майк Николс / Mike Nichols) [1988 г., драма, мелодрама, комедия, BDRip] Dub (Советский) + Original (Eng) 90ytr90
11 | 0

0 | 522

4

13.06.2016 20:44


Яндекс.Метрика powered by Sphinx


В Н И М А Н И Е
Сайт не распространяет и не хранит электронные версии произведений, а лишь бесплатно и без коммерческой выгоды (не требуя взамен платы,
SMS и т.д.) предоставляет доступ к создаваемому пользователями каталогу ссылок на торрент-файлы, которые содержат только списки хеш-сумм.
Убедительная просьба с жалобами обращаться напрямую к пользователю, разместившему торрент файл.

Вверх