Loading...
Error

Домоправитель (Роман Барабаш) [2013 г., комедия, SATRip]

Статистика раздачи
Размер:  1,36 GB   |    Зарегистрирован:  3 года 4 месяца   |    Скачан:  36 раз

Полного источника не было: 9 месяцев

Сидов:  0  |  0 KB/s  ]   Личеров:  0  |  0 KB/s  ]

* - сиды/пиры с внешних источников

   
 
Автор Сообщение

ZondeR Пол:Муж

12-Июл-2013 17:47

Домоправитель

Русское название: Домоправитель
Год выпуска: 2013
Производство: Украина, Star Media
Жанр: Комедия
Перевод: Не требуется (Русский)
Субтитры: Отсутствуют

Дата российской премьеры: 6 июля 2013

Режиссер: Роман Барабаш
Продюсер: Влад Ряшин, Юрий Минзянов, Дмитрий Минзянов
Актеры: Илья Глинников, Алика Смехова, Полина Воробьева, Константин Милованов, Павел Бессонов, Сергей Бондарчук (II), Костя Чернокрылюк, Валерия Гуляева

Описание фильма:
На курсе Леши Агафонова появляется новенькая — Ангелина Аистова. Отчаявшись привлечь внимание красотки, он имитирует столкновение с её машиной. Оказавшись в особняке Аистовых, Леша понимает, что влюбился в дочь олигарха, который, впрочем, переживает не лучшие времена из-за затяжной «войны» с давним конкурентом. Чтобы замять дело о наезде, Леша был принят к Аистовым на должность садовника. По долгу службы Леша захаживает в цветочный магазин, где знакомится с продавщицей Катей. Между ними завязывается дружба. У Ангелины проблемы с учебой, и отец грозит лишить ее финансирования. Она решает использовать влюбленного садовника, который лучше всех пишет курсовые. Но отношения, замешанные на лжи, распадаются. Когда все собираются на празднике в доме Аистова, начинаются сюрпризы: выясняется, что Катя — его старшая дочь. Просто она решила пробиться в жизни самостоятельно. Пришедший на празднование давний конкурент Аистова — Тихонов неожиданно объявляет, что Леша — его сын, который нашел способ разрешения конфликта между двумя бизнес-империями. Ангелина потрясена — она не разглядела в Леше богатого наследника. А Леша и Катя поняли, что все время своего знакомства они шли навстречу друг другу.



Сэмпл

Продолжительность: 01:24:06
Качество видео: SATRip

Видеокодек: Xvid
Битрейт видео: ~2056 Kbit/s
Размер кадра: 720 x 416
Аудиокодек: MP3, 2.0
Битрейт аудио: 256 Kbit/s
Общее
Полное имя : D:\Торренты\Домоправитель.2013.SATRip.avi
Формат : AVI
Формат/Информация : Audio Video Interleave
Размер файла : 1,36 Гбайт
Продолжительность : 1 ч. 24 м.
Общий поток : 2320 Кбит/сек
Программа кодирования : VirtualDubMod 1.5.4.1 (build 2178/release)
Библиотека кодирования : VirtualDubMod build 2178/release

Видео
Идентификатор : 0
Формат : MPEG-4 Visual
Профиль формата : Advanced Simple@L5
Параметр BVOP формата : 1
Параметр QPel формата : Нет
Параметр GMC формата : Без точки перехода
Параметр матрицы формата : Выборочная
Идентификатор кодека : XVID
Идентификатор кодека/Подсказка : XviD
Продолжительность : 1 ч. 24 м.
Битрейт : 2056 Кбит/сек
Ширина : 720 пикс.
Высота : 416 пикс.
Соотношение сторон : 16:9
Частота кадров : 25,000 кадр/сек
Цветовое пространство : YUV
Подвыборка цветности : 4:2:0
Битовая глубина : 8 бит
Тип развёртки : Прогрессивная
Метод сжатия : С потерями
Бит/(Пиксели*Кадры) : 0.275
Размер потока : 1,21 Гбайт (89%)
Библиотека кодирования : XviD 64

Аудио
Идентификатор : 1
Формат : MPEG Audio
Версия формата : Version 1
Профиль формата : Layer 3
Режим : Joint stereo
Расширение режима : MS Stereo
Идентификатор кодека : 55
Идентификатор кодека/Подсказка : MP3
Продолжительность : 1 ч. 24 м.
Вид битрейта : Постоянный
Битрейт : 256 Кбит/сек
Каналы : 2 канала
Частота : 48,0 КГц
Метод сжатия : С потерями
Размер потока : 154 Мбайт (11%)
Выравнивание : Соединение по промежуткам
Продолжительность промежутка : 80 мс. (2,00 видеокадра)
Время предзагрузки промежутка : 504 ms
Библиотека кодирования : LAME3.98r


pic pic pic
picpic
Для увеличения картинки щелкните мышкой по превью

Этот торрент доступен для скачивания без регистрации. Перед тем, как его скачать, прочтите, пожалуйста Пользовательское соглашение, а также как можно дольше оставайтесь на раздаче! Также вы можете выкладывать этот торрент или ссылку на него на других интернет-ресурсах, в том числе на торрент трекерах. Для получение более подробной информации о релизе, а также для того, чтобы поблагодарить релизера, вам необходимо зарегистрироваться.

[underverse.su].t29171.torrent
Трекер: Зарегистрирован   [ 12.07.2013 17:47 ]   [ торрент доступен для скачивания без регистрации ]

Статус: проверено (by ZondeR at 12.07.2013 18:31)
Поблагодарили: 1 человек
Тип торрента: публичный - доступные источники с открытых трекеров: 
Размер: 1,36 GB (занимает 0,31 DVDR, для записи нужно 1 болванка DVDR/RW)
 
 

Яндекс.Метрика powered by Sphinx


В Н И М А Н И Е
Сайт не распространяет и не хранит электронные версии произведений, а лишь бесплатно и без коммерческой выгоды (не требуя взамен платы,
SMS и т.д.) предоставляет доступ к создаваемому пользователями каталогу ссылок на торрент-файлы, которые содержат только списки хеш-сумм.
Убедительная просьба с жалобами обращаться напрямую к пользователю, разместившему торрент файл.

Вверх