Loading...
Error

Бренды Советской эпохи. Московские высотки. [2013 г., исторический, документальный, HDTVRip]

Статистика раздачи
Размер:  80 MB   |    Зарегистрирован:  3 года 4 месяца   |    Скачан:  24 раза
Сидов:  1  |  0 KB/s  ]   Личеров:  0  |  0 KB/s  ]

* - сиды/пиры с внешних источников

   
 
Автор Сообщение

матроскин Пол:Муж

11-Июл-2013 11:56

Бренды Советской эпохи. Московские высотки.


Год выпуска: 2013
Жанр: исторический, документальный
Страна: Россия
Выпущено: Красное ТВ
Сюжет фильма:
Всего их в Москве семь. Семь Сталинских высоток. Они поправу являются визитной карточкой Москвы. Проектировали высотки лучшие архитекторы Советского времени, многие из них учавствовали в проектах станций Московского метро. Вот такие бренды Советской эпохи.
Качество видео: HDTVRip

Продолжительность: 00:08:55
Формат: avi
Видео: xvid, 874x480, 2004 kbps
Аудио: русский, оригинал, MP3 2.0, 256 kbps

Код:

General
Complete name                    : C:\Users\Security\Desktop\Московские высотки.avi
Format                           : AVI
Format/Info                      : Audio Video Interleave
File size                        : 79.9 MiB
Duration                         : 8mn 55s
Overall bit rate                 : 2 273 Kbps
Writing application              : Lavf52.93.0

Video
Format                           : xvid
Codec ID                         : xvid
Duration                         : 4mn 55s
Bit rate                         : 2 004 Kbps
Width                            : 874 pixels
Height                           : 480 pixels
Display aspect ratio             : 16/9
Frame rate                       : 25.000 fps
Resolution                       : 24 bits
Bits/(Pixel*Frame)               : 0.196
Stream size                      : 70.5 MiB (88%)

Audio
ID                               : 1
Format                           : MPEG Audio
Format version                   : Version 1
Format profile                   : Layer 3
Codec ID                         : 55
Codec ID/Hint                    : MP3
Duration                         : 4mn 55s
Bit rate mode                    : Constant
Bit rate                         : 256 Kbps
Channel(s)                       : 2 channels
Sampling rate                    : 44.1 KHz
Resolution                       : 16 bits
Stream size                      : 9.00 MiB (11%)
Alignment                        : Aligned on interleaves
Interleave, duration             : 26 ms (0.65 video frame)
Interleave, preload duration     : 52 ms
Writing library                  : LAME3.98.4

picpicpicpicpicpic
Для увеличения картинки щелкните мышкой по превью

Этот торрент недоступен для скачивания без регистрации, однако доступен по публичной magnet-ссылке (источники с публичных трекеров). Перед использованием ссылки прочтите, пожалуйста Пользовательское соглашение, а также как можно дольше оставайтесь на раздаче! Для того, чтобы скачать сам торрент-файл (который видит больше источников), а также для того, чтобы поблагодарить релизера, вам необходимо зарегистрироваться. Если регистрироваться лень - вы можете также попробовать скачать релиз по нашим партнерским ссылкам ниже.

[underverse.su].t29128.torrent
Трекер: Зарегистрирован   [ 11.07.2013 11:56 ]  

Статус: проверено (by матроскин at 11.07.2013 11:57)
Поблагодарили: 1 человек
Тип торрента: публичный - доступные источники с открытых трекеров: 
Размер: 80 MB (занимает 0,02 DVDR, для записи нужно 1 болванка DVDR/RW)
 
 
Похожие темы
Форум Тема Автор Торрент Отв. Посл. сооб.
Исторические фильмы Бренды Советской эпохи. Мой адрес Советский Союз. [2013 г., документальный, HDTVRip] матроскин
0 | 0

1 | 832

29

27.02.2014 13:03

Исторические фильмы Бренды Советской Эпохи [2013, документальный, TVRip] матроскин
1 | 0

3 | 828

41

14.05.2013 19:23

Исторические фильмы Бренды Советской Эпохи. Московский метрополитен. [2013 г., документальный, короткометражный HDTVRip] матроскин
0 | 0

1 | 1180

24

09.05.2013 21:05

Исторические фильмы Бренды Советской эпохи. Черная икра. [2013 г., документальный, короткометражный HDTVRip] матроскин
0 | 0

2 | 1198

19

20.07.2013 13:34

Исторические фильмы Бренды Советской эпохи. Гитара. [2013 г., документальный, короткометражный, HDTVRip] матроскин
0 | 0

1 | 1059

13

12.05.2013 11:50

Исторические фильмы Бренды Советской эпохи. Большое новоселье [2013 г., исторический, документальный, HDTVRip] матроскин
1 | 0

2 | 978

25

01.08.2013 20:07

Исторические фильмы Бренды Советской эпохи. Мопеды [2013 г., исторический, документальный, HDTVRip] матроскин
1 | 0

1 | 1014

26

11.07.2013 08:55

Исторические фильмы Бренды Советской эпохи. Советские часы [2013 г., документальный, исторический, HDTVRip] матроскин
0 | 0

2 | 1821

31

12.10.2013 05:00

Исторические фильмы Бренды Советской эпохи. Столичная водка [2013 г., документальный, исторический, HDTVRip] матроскин
0 | 0

1 | 2282

36

09.10.2013 10:54

Исторические фильмы Бренды Советской эпохи. ЗИЛ [2013 г., документальный, HDTVRip] матроскин
0 | 0

1 | 603

9

30.12.2013 09:07

матроскин Пол:Муж

11-Июл-2013 11:58



Hranitel Пол:Муж

03-Авг-2013 18:33

Семь Сталинских высоток как семь холмов Рима являются знаковым символом Великой Империи. Римская империя была империей завоевателей. Наша, Советская Империя была Империей Созидателей. Величественные
Московские высотки взмыли своими шпилями в небо как наши космические корабли. Это символы могучих достижений той Великой эпохи.

mik8820187 Пол:Муж

21-Июл-2014 13:02

Hranitel-ю.Порадовал Ваш комментарий,оказ не вся страна одебилела.Приятно удивлен,спасибо

Яндекс.Метрика powered by Sphinx


В Н И М А Н И Е
Сайт не распространяет и не хранит электронные версии произведений, а лишь бесплатно и без коммерческой выгоды (не требуя взамен платы,
SMS и т.д.) предоставляет доступ к создаваемому пользователями каталогу ссылок на торрент-файлы, которые содержат только списки хеш-сумм.
Убедительная просьба с жалобами обращаться напрямую к пользователю, разместившему торрент файл.

Вверх