Loading...
Error

Бренды Советской эпохи. Большое новоселье [2013 г., исторический, документальный, HDTVRip]

Статистика раздачи
Размер:  82 MB   |    Зарегистрирован:  3 года 4 месяца   |    Скачан:  25 раз
Сидов:  1  |  0 KB/s  ]   Личеров:  0  |  0 KB/s  ]

* - сиды/пиры с внешних источников

   
 
Автор Сообщение

матроскин Пол:Муж

11-Июл-2013 07:58

Бренды Советской эпохи. Большое новоселье


Год выпуска: 2013
Жанр: исторический, документальный
Страна: Россия
Выпущено: Красное ТВ
Сюжет фильма:
Это история о Советских временах когда еще не было обманутых дольщиков и вкладчиков. Никто еще не знал об ипотеке. Это рассказ о градостроительной реформе в нашей стране для народа, эпохи большого бесплатного новоселья. Вот это и есть бренды Советской эпохи. А сейчас что??? Никакого бесплатного жилья для людей, покупай!, если нет денег, то живи в коробке из под телевизора на улице.
Качество видео: HDTVRip

Продолжительность: 00:10:00
Формат: avi
Видео: xvid, 874x480, 2013 kbps
Аудио: русский, оригинал, MP3 2.0, 256 kbps

Код:

General
Complete name                    : C:\Users\Security\Desktop\Большое новоселье.avi
Format                           : AVI
Format/Info                      : Audio Video Interleave
File size                        : 81.6 MiB
Duration                         : 5mn 0s
Overall bit rate                 : 2 282 Kbps
Writing application              : Lavf52.93.0

Video
Format                           : xvid
Codec ID                         : xvid
Duration                         : 10mn 0s
Bit rate                         : 2 014 Kbps
Width                            : 874 pixels
Height                           : 480 pixels
Display aspect ratio             : 16/9
Frame rate                       : 25.000 fps
Resolution                       : 24 bits
Bits/(Pixel*Frame)               : 0.196
Stream size                      : 72.0 MiB (88%)

Audio
ID                               : 1
Format                           : MPEG Audio
Format version                   : Version 1
Format profile                   : Layer 3
Codec ID                         : 55
Codec ID/Hint                    : MP3
Duration                         : 4mn 59s
Bit rate mode                    : Constant
Bit rate                         : 256 Kbps
Channel(s)                       : 2 channels
Sampling rate                    : 44.1 KHz
Resolution                       : 16 bits
Stream size                      : 9.15 MiB (11%)
Alignment                        : Aligned on interleaves
Interleave, duration             : 26 ms (0.65 video frame)
Interleave, preload duration     : 52 ms
Writing library                  : LAME3.98.4

picpicpicpicpicpic
Для увеличения картинки щелкните мышкой по превью

Этот торрент недоступен для скачивания без регистрации, однако доступен по публичной magnet-ссылке (источники с публичных трекеров). Перед использованием ссылки прочтите, пожалуйста Пользовательское соглашение, а также как можно дольше оставайтесь на раздаче! Для того, чтобы скачать сам торрент-файл (который видит больше источников), а также для того, чтобы поблагодарить релизера, вам необходимо зарегистрироваться. Если регистрироваться лень - вы можете также попробовать скачать релиз по нашим партнерским ссылкам ниже.

[underverse.su].t29116.torrent
Трекер: Зарегистрирован   [ 11.07.2013 07:58 ]  

Статус: проверено (by матроскин at 11.07.2013 07:59)
Поблагодарили: 2 человека
Тип торрента: публичный - доступные источники с открытых трекеров: 
Размер: 82 MB (занимает 0,02 DVDR, для записи нужно 1 болванка DVDR/RW)
 
 
Похожие темы
Форум Тема Автор Торрент Отв. Посл. сооб.
Исторические фильмы Бренды Советской эпохи. Мой адрес Советский Союз. [2013 г., документальный, HDTVRip] матроскин
2 | 0

1 | 831

29

27.02.2014 13:03

Исторические фильмы Бренды Советской Эпохи [2013, документальный, TVRip] матроскин
1 | 0

3 | 828

41

14.05.2013 19:23

Исторические фильмы Бренды Советской Эпохи. Московский метрополитен. [2013 г., документальный, короткометражный HDTVRip] матроскин
1 | 0

1 | 1180

24

09.05.2013 21:05

Исторические фильмы Бренды Советской эпохи. Черная икра. [2013 г., документальный, короткометражный HDTVRip] матроскин
1 | 0

2 | 1197

19

20.07.2013 13:34

Исторические фильмы Бренды Советской эпохи. Гитара. [2013 г., документальный, короткометражный, HDTVRip] матроскин
1 | 0

1 | 1059

13

12.05.2013 11:50

Исторические фильмы Бренды Советской эпохи. Мопеды [2013 г., исторический, документальный, HDTVRip] матроскин
1 | 0

1 | 1014

26

11.07.2013 08:55

Исторические фильмы Бренды Советской эпохи. Московские высотки. [2013 г., исторический, документальный, HDTVRip] матроскин
1 | 0

3 | 1065

24

21.07.2014 13:02

Исторические фильмы Бренды Советской эпохи. Советские часы [2013 г., документальный, исторический, HDTVRip] матроскин
1 | 0

2 | 1821

31

12.10.2013 05:00

Исторические фильмы Бренды Советской эпохи. Столичная водка [2013 г., документальный, исторический, HDTVRip] матроскин
1 | 0

1 | 2282

36

09.10.2013 10:54

Исторические фильмы Бренды Советской эпохи. ЗИЛ [2013 г., документальный, HDTVRip] матроскин
1 | 0

1 | 603

9

30.12.2013 09:07

матроскин Пол:Муж

11-Июл-2013 08:13



Hranitel Пол:Муж

01-Авг-2013 20:07

Короткий, но ёмкий фильм. :good: Показано, как при Советской власти системно подходили к каждому важному делу. Наиважнейшим вопросом было обеспечение людей жильём. Последовательно, целенаправленно, в огромных масштабах шло строительство. Дома возводились простой, недорогой конструкции. Параллель можно провести с танком Т-34 в годы войны. Производство недорогой, но эффективной боевой машины позволило разгромить фашистских захватчиков. Сейчас же, в нашей "стране" системно только разворовывание на государственном уровне. На государственном уровне идёт и покрывание воров, посмотрите на военное ведомство для примера и кто покрывает. Примеров у нас не пересчитать. Теперь начните ждать, когда у нас станет всё хорошо. Не дождётесь. Государство должно существовать для людей, а не наоборот как у нас. Дольщики, вкладчики, кредиторы, ипотеки-кому это нужно? Жильё, недра, природные богатства принадлежат нашему народу. Мы никому не должны за них платить. Труд, созидание и патернализм Государства к каждому человеку индивидуально-вот наше достойное будущее! Автору-неизменная благодарность! :)

Яндекс.Метрика powered by Sphinx


В Н И М А Н И Е
Сайт не распространяет и не хранит электронные версии произведений, а лишь бесплатно и без коммерческой выгоды (не требуя взамен платы,
SMS и т.д.) предоставляет доступ к создаваемому пользователями каталогу ссылок на торрент-файлы, которые содержат только списки хеш-сумм.
Убедительная просьба с жалобами обращаться напрямую к пользователю, разместившему торрент файл.

Вверх