Loading...
Error

Странный Томас / Odd Thomas (Стивен Соммерс / Stephen Sommers) [2013 г., триллер, детектив, DVDRip] MVO

Статистика раздачи
Размер:  1,41 GB   |    Зарегистрирован:  3 года 4 месяца   |    Скачан:  29 раз

Полного источника не было: 2 года 7 месяцев

Сидов:  0  |  0 KB/s  ]   Личеров:  0  |  0 KB/s  ]

* - сиды/пиры с внешних источников

   
 
Автор Сообщение

Паукан Пол:Муж

11-Июл-2013 07:51

Странный Томас / Odd Thomas


Страна: США
Жанр: триллер, детектив
Год выпуска: 2013
Продолжительность: 01:32:41
Перевод: Профессиональный (многоголосый закадровый) - (Товарищество 110/17)

Режиссер: Стивен Соммерс / Stephen Sommers

В ролях: Антон Ельчин, Эшли Соммерс, Леонор Варела, Мэттью Пейдж, Кэйси Мессер, Берни Леннинг, Нико Торторелла, Уиллем Дефо, Кайл МакКивер, Кармен Корли

Описание: Главный герой наделен даром (или проклятием) видеть мертвецов. Каждый их визит становится началом очередной охоты на убийцу — призраки ведут Томаса на помощь тем, кому еще рано расставаться с жизнью. О способности героя знают только самые близкие друзья и любимая девушка. С их помощью ему предстоит отвести большую беду от маленького городка в центре пустыни Мохаве.
Доп. информация:
Перевод: Константин Кривоногов
Работа со звуком: Алексей Фокин
Роли озвучивали:

Михаил Суслов
Константин Погодаев
Владимир Чистохин
Алексей Фокин
Анастасия Флигина
Светлана Чистохина
Сэмпл
Качество видео: DVDRip
Формат видео: AVI
Видео: 720x304, 25.000 fps, 1 720 Kbps, 0.314 bit/pixel
Аудио: AC3, 48 KHz, 384 Kbps, 6 ch - Rus


Format : AVI
Format/Info : Audio Video Interleave
File size : 1.41 GiB
Duration : 1h 32mn
Overall bit rate : 2 178 Kbps
Writing application : VirtualDubModRus 1.5.10.2 (build 2542/release)
Writing library : VirtualDubMod build 2542/release

Video
ID : 0
Format : MPEG-4 Visual
Format profile : Advanced Simple@L5
Format settings, BVOP : 2
Format settings, QPel : No
Format settings, GMC : No warppoints
Format settings, Matrix : Default (H.263)
Muxing mode : Packed bitstream
Codec ID : XVID
Codec ID/Hint : XviD
Duration : 1h 32mn
Bit rate : 1 720 Kbps
Width : 720 pixels
Height : 304 pixels
Display aspect ratio : 2.35:1
Frame rate : 25.000 fps
Color space : YUV
Chroma subsampling : 4:2:0
Bit depth : 8 bits
Scan type : Progressive
Compression mode : Lossy
Bits/(Pixel*Frame) : 0.314
Stream size : 1.11 GiB (79%)
Writing library : XviD 64

Audio
ID : 1
Format : AC-3
Format/Info : Audio Coding 3
Mode extension : CM (complete main)
Format settings, Endianness : Big
Codec ID : 2000
Duration : 1h 32mn
Bit rate mode : Constant
Bit rate : 448 Kbps
Channel(s) : 6 channels
Channel positions : Front: L C R, Side: L R, LFE
Sampling rate : 48.0 KHz
Bit depth : 16 bits
Compression mode : Lossy
Stream size : 297 MiB (21%)
Alignment : Split accross interleaves
Interleave, duration : 40 ms (1.00 video frame)
Interleave, preload duration : 500 ms
pic pic pic
Для увеличения картинки щелкните мышкой по превью

Этот торрент недоступен для скачивания без регистрации, однако доступен по публичной magnet-ссылке (источники с публичных трекеров). Перед использованием ссылки прочтите, пожалуйста Пользовательское соглашение, а также как можно дольше оставайтесь на раздаче! Для того, чтобы скачать сам торрент-файл (который видит больше источников), а также для того, чтобы поблагодарить релизера, вам необходимо зарегистрироваться. Если регистрироваться лень - вы можете также попробовать скачать релиз по нашим партнерским ссылкам ниже.

[underverse.su].t29115.torrent
Трекер: Зарегистрирован   [ 11.07.2013 07:51 ]  

Статус: проверено (by Паукан at 11.07.2013 07:52)
Поблагодарили: 1 человек
Тип торрента: публичный - доступные источники с открытых трекеров: 
Размер: 1,41 GB (занимает 0,32 DVDR, для записи нужно 1 болванка DVDR/RW)
 
 
Похожие темы
Форум Тема Автор Торрент Отв. Посл. сооб.
Зарубежное кино [DVDRip, Low-Res HDRip, и т.д.] Странный Томас / Odd Thomas (Стивен Соммерс) [2013 г., триллер, детектив, DVDRip] DVO [den904, DeadSno] RG NewCinema
0 | 0

0 | 795

18

07.07.2013 17:53

Зарубежное кино [DVDRip, Low-Res HDRip, и т.д.] Странный Томас / Odd Thomas (Стивен Соммерс / Stephen Sommers) [2013 г., триллер, детектив, HDRip] MVO Паукан
302 | 3

0 | 1386

19

21.10.2013 07:01


Яндекс.Метрика powered by Sphinx


В Н И М А Н И Е
Сайт не распространяет и не хранит электронные версии произведений, а лишь бесплатно и без коммерческой выгоды (не требуя взамен платы,
SMS и т.д.) предоставляет доступ к создаваемому пользователями каталогу ссылок на торрент-файлы, которые содержат только списки хеш-сумм.
Убедительная просьба с жалобами обращаться напрямую к пользователю, разместившему торрент файл.

Вверх