Loading...
Error

Эндорфин (Павел Жарков) [2011 г., драма, фантастика, боевик, WEB-DLRip]

Статистика раздачи
Размер:  341 MB   |    Зарегистрирован:  3 года 4 месяца   |    Скачан:  25 раз

Полного источника не было: 1 год 6 месяцев

Сидов:  0  |  0 KB/s  ]   Личеров:  0  |  0 KB/s  ]

* - сиды/пиры с внешних источников

   
 
Автор Сообщение

Паукан Пол:Муж

10-Июл-2013 19:13

Эндорфин


Жанр: драма, фантастика, боевик
Год выпуска: 2011
Продолжительность: 00:41:32

Режиссер: Павел Жарков

В ролях: Евгений Мартынов, Никита Чеботарёв, Павел Жарков, Владислав Ермилов, Ярослав Михеев, Сергей Макаров, Антон Володеев, Сергей Гетмановский, Александр Филатов, Артем Ильинский, Антон Дедиков, Анастасия Королькова, Владислав Токарев, Роман Алексанин, Михаил Павлов, Варвара Романова, Ангелина Попова, Нелли Пальгуева, Ирина Целяева, Дмитрий Мемешкин, Анатолий Ерёмин, Андрей Буданов, Иван Семёнов

Описание: Механика цифр - мысли и числа, комбинации и суммы, целый мир; каждый объект и каждая клетка работают в этом. Все они имеют определенные значения и действуют в своих областях, но важно видеть и знать - как, потому что, изменив их, ты можешь изменить всё; поняв систему, ты сотрешь границы; нет предела и ограничений. Выбор исключительно за тем, кто прикасается к цифрам, - если не ставят условий, в которых нет нужного выхода...

Доп. информация:
Сценарий: Павел Жарков
Оператор: Владислав Ермилов
Автор музыки: Павел Жарков

Семпл: http://multi-up.com/873049

Качество видео: WEB-DLRip
Формат видео: AVI

Видео: 720x320 (2.25:1), 30 fps, XviD 1.2.0.dev47, 943 kbps avg, 0.14 bit/pixel
Аудио: 48 kHz, AC3 Dolby Digital, 2/0 (L,R) ch, 192 kbps
Полное имя : Endorphin.avi
Формат : AVI
Формат/Информация : Audio Video Interleave
Размер файла : 341 Мбайт
Продолжительность : 41 м.
Общий поток : 1147 Кбит/сек
Программа кодирования : VirtualDubMod 1.5.10.2 (build 2540/release)
Библиотека кодирования : VirtualDubMod build 2540/release

Видео
Идентификатор : 0
Формат : MPEG-4 Visual
Профиль формата : Advanced Simple@L5
Параметр BVOP формата : 3
Параметр QPel формата : Да
Параметр GMC формата : 3 точки перехода
Параметр матрицы формата : Default (H.263)
Режим смешивания : Сжатый битовый поток
Идентификатор кодека : XVID
Идентификатор кодека/Подсказка : XviD
Продолжительность : 41 м.
Битрейт : 944 Кбит/сек
Ширина : 720 пикселей
Высота : 320 пикселей
Соотношение сторон : 2,25:1
Частота кадров : 30,000 кадров/сек
Цветовое пространство : YUV
Субдискретизация насыщенности : 4:2:0
Битовая глубина : 8 бит
Тип развёртки : Прогрессивная
Метод сжатия : С потерями
Бит/(Пиксели*Кадры) : 0.137
Размер потока : 280 Мбайт (82%)
Библиотека кодирования : XviD 1.2.0.dev47 (UTC 2006-11-01)

Аудио
Идентификатор : 1
Формат : AC-3
Формат/Информация : Audio Coding 3
Расширение режима : CM (complete main)
Параметр Endianness формата : Big
Идентификатор кодека : 2000
Продолжительность : 41 м.
Вид битрейта : Постоянный
Битрейт : 192 Кбит/сек
Каналы : 2 канала
Расположение каналов : Front: L R
Частота : 48,0 КГц
Битовая глубина : 16 бит
Метод сжатия : С потерями
Размер потока : 57,0 Мбайт (17%)
Выравнивание : Разделение по промежуткам
Продолжительность промежутка : 33 мс. (1,00 видеокадр)
Время предзагрузки промежутка : 500 мс.
pic pic pic
Для увеличения картинки щелкните мышкой по превью

Этот торрент недоступен для скачивания без регистрации, однако доступен по публичной magnet-ссылке (источники с публичных трекеров). Перед использованием ссылки прочтите, пожалуйста Пользовательское соглашение, а также как можно дольше оставайтесь на раздаче! Для того, чтобы скачать сам торрент-файл (который видит больше источников), а также для того, чтобы поблагодарить релизера, вам необходимо зарегистрироваться. Если регистрироваться лень - вы можете также попробовать скачать релиз по нашим партнерским ссылкам ниже.

[underverse.su].t29103.torrent
Трекер: Зарегистрирован   [ 10.07.2013 19:13 ]  

Статус: проверено (by Паукан at 10.07.2013 19:13)
Поблагодарили: 1 человек
Тип торрента: публичный - доступные источники с открытых трекеров: 
Размер: 341 MB (занимает 0,08 DVDR, для записи нужно 1 болванка DVDR/RW)
 
 

Яндекс.Метрика powered by Sphinx


В Н И М А Н И Е
Сайт не распространяет и не хранит электронные версии произведений, а лишь бесплатно и без коммерческой выгоды (не требуя взамен платы,
SMS и т.д.) предоставляет доступ к создаваемому пользователями каталогу ссылок на торрент-файлы, которые содержат только списки хеш-сумм.
Убедительная просьба с жалобами обращаться напрямую к пользователю, разместившему торрент файл.

Вверх