Loading...
Error

Оз: Великий и Ужасный / Oz the Great and Powerful (Сэм Рэйми) [2013 г., фэнтези, приключения, комедия, семейный, BDRip] Dub (Rus,Ukr) + Original + Sub (Rus,Ukr,Eng) HQ Underverse

Статистика раздачи
Размер:  2,17 GB   |    Зарегистрирован:  3 года 4 месяца   |    Скачан:  85 раз
Сидов:  1  |  0 KB/s  ]   Личеров:  0  |  0 KB/s  ]

* - сиды/пиры с внешних источников

   
 
Автор Сообщение

HQ Underverse 

09-Июл-2013 14:13

Оз: Великий и Ужасный / Oz the Great and Powerful


Год выпуска: 2013
Жанр: фэнтези, приключения, комедия, семейный
Страна: США
Режиссер: Сэм Рэйми
В ролях: Джеймс Франко, Мила Кунис, Рейчел Вайс, Мишель Уильямс, Зак Брафф, Билл Коббс, Джои Кинг, Тони Кокс, Стивен Р. Харт, Эбигейл Спенсер
Сюжет фильма:
Когда ураган забрасывает циркового фокусника Оскара Диггса из пыльного Канзаса в волшебную страну Оз, склонный к мошенничеству циркач полагает, что он поймал удачу за хвост — ведь с помощью своих трюков он с легкостью может добыть в новых землях и славу и богатство.

Однако его ждёт встреча с тремя чародейками, Теодорой, Эванорой и Глиндой, которые сомневаются в том, тот ли это великий волшебник, появления которого ждали легковерные жители страны Оз. Волей-неволей, пришелец оказывается втянутым в противостояние эпического масштаба, и ему приходится использовать весь свой «магический» арсенал, с добавлением толики настоящего волшебства.

В ситуации выбора между Добром и Злом, Оскару Диггсу предстоит не только стать Великим и Ужасным Волшебником из Страны Оз, но и немного измениться к лучшему.

  • Мировая премьера: 14 февраля 2013
  • Российская премьера: 7 марта 2013, «WDSSPR» 3D

/
Качество видео: BDRip

Продолжительность: 02:10:30
Формат: avi
Видео: XviD, 720x304, 1988 kbps
Аудио #1: русский, дублированный [лицензия], AC3 5.1, 384 kbps
Аудио #2: английский, оригинал, AC3 5.1, 384 kbps (отдельным файлом: здесь)
Аудио #3: украинский, дублированный [лицензия], AC3 2.0, 192 kbps (отдельным файлом: здесь)
Субтитры #1: внешние, SRT, русский
Субтитры #2: внешние, SRT, английский
Субтитры #3: внешние, SRT, украинский

Код:

General
Complete name                    : F:\Оз\Oz.the.Great.and.Powerful.2013.BDRip.XviD.AC3.Rus.D.HQ.Underverse.avi
Format                           : AVI
Format/Info                      : Audio Video Interleave
Format profile                   : OpenDML
File size                        : 2.17 GiB
Duration                         : 2h 10mn
Overall bit rate                 : 2 384 Kbps
Writing application              : VirtualDubMod 1.5.10.2 (build 2540/release)
Writing library                  : VirtualDubMod build 2540/release

Video
ID                               : 0
Format                           : MPEG-4 Visual
Format profile                   : Streaming Video@L1
Format settings, BVOP            : Yes
Format settings, QPel            : No
Format settings, GMC             : No warppoints
Format settings, Matrix          : Custom
Muxing mode                      : Packed bitstream
Codec ID                         : XVID
Codec ID/Hint                    : XviD
Duration                         : 2h 10mn
Bit rate                         : 1 989 Kbps
Width                            : 720 pixels
Height                           : 304 pixels
Display aspect ratio             : 2.35
Frame rate                       : 23.976 fps
Resolution                       : 24 bits
Colorimetry                      : 4:2:0
Scan type                        : Progressive
Bits/(Pixel*Frame)               : 0.379
Stream size                      : 1.81 GiB (83%)
Writing library                  : XviD 64

Audio
ID                               : 1
Format                           : AC-3
Format/Info                      : Audio Coding 3
Codec ID                         : 2000
Duration                         : 2h 10mn
Bit rate mode                    : Constant
Bit rate                         : 384 Kbps
Channel(s)                       : 6 channels
Channel positions                : Front: L C R, Surround: L R, LFE
Sampling rate                    : 48.0 KHz
Stream size                      : 358 MiB (16%)
Alignment                        : Split accross interleaves
Interleave, duration             : 42 ms (1.00 video frame)
Interleave, preload duration     : 500 ms

General
Complete name                    : F:\Оз\Oz.the.Great.and.Powerful.2013.BDRip.XviD.AC3.Rus.D.HQ.Underverse.avi.ENG.ac3
Format                           : AC-3
Format/Info                      : Audio Coding 3
File size                        : 358 MiB
Duration                         : 2h 10mn
Overall bit rate                 : 384 Kbps

Audio
Format                           : AC-3
Format/Info                      : Audio Coding 3
Duration                         : 2h 10mn
Bit rate mode                    : Constant
Bit rate                         : 384 Kbps
Channel(s)                       : 6 channels
Channel positions                : Front: L C R, Surround: L R, LFE
Sampling rate                    : 48.0 KHz
Stream size                      : 358 MiB (100%)

General
Complete name                    : F:\Оз\Oz.the.Great.and.Powerful.2013.BDRip.XviD.AC3.Rus.D.HQ.Underverse.avi.UKR.ac3
Format                           : AC-3
Format/Info                      : Audio Coding 3
File size                        : 179 MiB
Duration                         : 2h 10mn
Overall bit rate                 : 192 Kbps

Audio
Format                           : AC-3
Format/Info                      : Audio Coding 3
Duration                         : 2h 10mn
Bit rate mode                    : Constant
Bit rate                         : 192 Kbps
Channel(s)                       : 2 channels
Channel positions                : L R
Sampling rate                    : 48.0 KHz
Stream size                      : 179 MiB (100%)

Релиз группы:

picpicpic
Для увеличения картинки щелкните мышкой по превью

Этот торрент недоступен для скачивания без регистрации, однако доступен по публичной magnet-ссылке (источники с публичных трекеров). Перед использованием ссылки прочтите, пожалуйста Пользовательское соглашение, а также как можно дольше оставайтесь на раздаче! Для того, чтобы скачать сам торрент-файл (который видит больше источников), а также для того, чтобы поблагодарить релизера, вам необходимо зарегистрироваться. Если регистрироваться лень - вы можете также попробовать скачать релиз по нашим партнерским ссылкам ниже.

[underverse.su].t29069.torrent
Трекер: Зарегистрирован   [ 09.07.2013 14:13 ]  

Статус: проверено (by Паукан at 09.07.2013 14:24)
Поблагодарили: 8 человек
Тип торрента: публичный - доступные источники с открытых трекеров: 
Размер: 2,17 GB (занимает 1/2 DVDR, для записи нужно 1 болванка DVDR/RW)
 
 
Похожие темы
Форум Тема Автор Торрент Отв. Посл. сооб.
Зарубежное кино [DVDRip, Low-Res HDRip, и т.д.] Оз: Великий и Ужасный / Oz the Great and Powerful (Сэм Рэйми / Sam Raimi) [2013 г., фэнтези, приключения, комедия, семейный, BDRip] Dub (Rus,Ukr) + Original + Sub (Rus,Ukr,Eng) Паукан
2 | 0

0 | 1208

65

15.07.2013 12:00

Зарубежное кино [HDDVDRip / BDRip / WEB-DL / HDTV 1080/720р] Оз: Великий и Ужасный / Oz the Great and Powerful (Сэм Рэйми / Sam Raimi) [2013, фэнтези, приключения, комедия, семейный, BDRip 720p] DUB + Original + Sub (Rus, Eng) Печаль'ka
16 | 0

0 | 797

81

04.06.2013 10:27

Зарубежное кино [HDDVDRip / BDRip / WEB-DL / HDTV 1080/720р] Оз: Великий и Ужасный в 3D / Oz the Great and Powerful in 3D (Сэм Рэйми) [ 2013 г., фэнтези, приключения, комедия, семейный,, BDRip 1080p] Dub Анаглиф (Дюбуа) slaventi-69
0 | 0

0 | 1551

13

06.06.2013 17:09

Видео для смартфонов Оз: Великий и Ужасный / Oz the Great and Powerful [2013 г., фэнтези, приключения, комедия, семейный, HDRip] Dub + Original | iPhone Чертёнок
1 | 0

0 | 1135

31

29.06.2013 09:01

alex_g77 

10-Июл-2013 07:46

раздаём, не!? :Search:

Яндекс.Метрика powered by Sphinx


В Н И М А Н И Е
Сайт не распространяет и не хранит электронные версии произведений, а лишь бесплатно и без коммерческой выгоды (не требуя взамен платы,
SMS и т.д.) предоставляет доступ к создаваемому пользователями каталогу ссылок на торрент-файлы, которые содержат только списки хеш-сумм.
Убедительная просьба с жалобами обращаться напрямую к пользователю, разместившему торрент файл.

Вверх