Loading...
Error

Авианесущие корабли Советского Союза (Фильм Второй) [2012 г., исторический, документальный, TVRip]

Статистика раздачи
Размер:  558 MB   |    Зарегистрирован:  3 года 5 месяцев   |    Скачан:  11 раз

Полного источника не было: 8 часов

Сидов:  0  |  0 KB/s  ]   Личеров:  0  |  0 KB/s  ]

* - сиды/пиры с внешних источников

   
 
Автор Сообщение

матроскин Пол:Муж

08-Июл-2013 14:08

Авианесущие корабли Советского Союза (Фильм Второй)


Год выпуска: 2012
Жанр: исторический, документальный
Страна: Россия
Режиссер: Константин Поляков
Выпущено: Телеканал "Звезда", Студия "Крылья России"
Сюжет фильма:
История создания авианесущих кораблей нашей страны полна интриг, тайн и роковых ошибок. Идея создания корабля, способного нести на борту самолёты, возникала в Советском Союзе ещё в 20 годах прошлого века. Но по разным причинам к разработке и строительству подобного проекта приступили только в конце 50-х. Почему так долго у великой морской державы - СССР - долгое время не было авианосцев, хотя их имели многие страны мира? Поначалу это были корабли, способные нести на борту только вертолёты. В дальнейшем различные факторы привели к появлению тяжёлых крейсеров, способных нести как вертолёты, так и вертикально взлетающие самолёты. И только в начале 80-х в состав советского флота вошли корабли, способные нести различные типы авиационной техники. Фильм расскажет об истории авианосцев - от первых взлетов самолетов с кораблей, от вертолетоносцев «Москва» и «Ленинград», авианесущих кораблей «Киев», «Минск» и «Баку» до ТАКР «Адмирал флота Советского Союза Кузнецов».
Качество видео: TVRip

Продолжительность: 00:37:23
Формат: avi
Видео: XviD, 720x528, 1948 kbps
Аудио: русский, оригинал, MP3 2.0, 128 kbps

Код:

General
Complete name                    : C:\Users\Security\Desktop\Авианес второй.avi
Format                           : AVI
Format/Info                      : Audio Video Interleave
File size                        : 558 MiB
Duration                         : 37mn 23s
Overall bit rate                 : 2 086 Kbps
Writing application              : VirtualDubMod 1.5.10.2 (build 2540/release)
Writing library                  : VirtualDubMod build 2540/release

Video
ID                               : 0
Format                           : MPEG-4 Visual
Format profile                   : Streaming Video@L1
Format settings, BVOP            : Yes
Format settings, QPel            : No
Format settings, GMC             : No warppoints
Format settings, Matrix          : Default (H.263)
Codec ID                         : XVID
Codec ID/Hint                    : XviD
Duration                         : 37mn 23s
Bit rate                         : 1 949 Kbps
Width                            : 720 pixels
Height                           : 528 pixels
Display aspect ratio             : 4/3
Frame rate                       : 25.000 fps
Resolution                       : 24 bits
Colorimetry                      : 4:2:0
Scan type                        : Progressive
Bits/(Pixel*Frame)               : 0.205
Stream size                      : 521 MiB (93%)
Writing library                  : XviD 1.2.0.dev47 (UTC 2006-11-01)

Audio
ID                               : 1
Format                           : MPEG Audio
Format version                   : Version 1
Format profile                   : Layer 3
Codec ID                         : 55
Codec ID/Hint                    : MP3
Duration                         : 37mn 23s
Bit rate mode                    : Constant
Bit rate                         : 128 Kbps
Channel(s)                       : 2 channels
Sampling rate                    : 48.0 KHz
Resolution                       : 16 bits
Stream size                      : 34.2 MiB (6%)
Alignment                        : Aligned on interleaves
Interleave, duration             : 40 ms (1.00 video frame)
Interleave, preload duration     : 504 ms
Writing library                  : LAME3.97
Encoding settings                : -m s -V 4 -q 2 -lowpass 17 -b 128

picpicpicpicpicpic
Для увеличения картинки щелкните мышкой по превью

Этот торрент недоступен для скачивания без регистрации, однако доступен по публичной magnet-ссылке (источники с публичных трекеров). Перед использованием ссылки прочтите, пожалуйста Пользовательское соглашение, а также как можно дольше оставайтесь на раздаче! Для того, чтобы скачать сам торрент-файл (который видит больше источников), а также для того, чтобы поблагодарить релизера, вам необходимо зарегистрироваться. Если регистрироваться лень - вы можете также попробовать скачать релиз по нашим партнерским ссылкам ниже.

[underverse.su].t29050.torrent
Трекер: Зарегистрирован   [ 08.07.2013 14:08 ]  

Статус: проверено (by матроскин at 08.07.2013 14:09)
Поблагодарили: 1 человек
Тип торрента: публичный - доступные источники с открытых трекеров: 
Размер: 558 MB (занимает 0,12 DVDR, для записи нужно 1 болванка DVDR/RW)
 
 
Похожие темы
Форум Тема Автор Торрент Отв. Посл. сооб.
Исторические фильмы Авианесущие корабли Советского Союза (Фильм Первый) [2012 г., исторический, документальный, TVRip] матроскин
0 | 0

1 | 922

12

08.07.2013 10:33

матроскин Пол:Муж

08-Июл-2013 14:10




Яндекс.Метрика powered by Sphinx


В Н И М А Н И Е
Сайт не распространяет и не хранит электронные версии произведений, а лишь бесплатно и без коммерческой выгоды (не требуя взамен платы,
SMS и т.д.) предоставляет доступ к создаваемому пользователями каталогу ссылок на торрент-файлы, которые содержат только списки хеш-сумм.
Убедительная просьба с жалобами обращаться напрямую к пользователю, разместившему торрент файл.

Вверх