Loading...
Error

Курск-какие тайны хранит / Koursk-un sous-marin en eaux troubles [2001 г., трагедия, документальный, исторический, TVRip]

Статистика раздачи
Размер:  710 MB   |    Зарегистрирован:  3 года 5 месяцев   |    Скачан:  17 раз
Сидов:  1  |  0 KB/s  ]   Личеров:  0  |  0 KB/s  ]

* - сиды/пиры с внешних источников

   
 
Автор Сообщение

матроскин Пол:Муж

08-Июл-2013 09:10

Курск-какие тайны хранит / Koursk-un sous-marin en eaux troubles


Год выпуска: 2001
Жанр: трагедия, документальный, исторический
Страна: Норвегия
Режиссер: Ойстен Боген
Выпущено: Норвегия, TV2, 24 Doc
Сюжет фильма:
12 августа 2000 года мир, затаив дыхание, наблюдал за судьбой русской атомной подводной лодки "Курск", затонувшей около Мурманска в итоге массивного взрыва на борту. Опосля погружения на дно некоторым членам команды удалось выжить. Оставалась надежда, что людей можно было спасти, так как лодка находилась всего в 108-ми метрах под поверхностью воды. Но все пробы спасти их не увенчались фуррором. Тела моряков удалось достать только после поднятия «Курска» в 2001 году.
Качество видео: TVRip

Продолжительность: 00:52:18
Формат: avi
Видео: XviD, 720x544, 1792 kbps
Аудио: русский, оригинал, MP3 1, 96 kbps

Код:

General
Complete name                    : C:\Users\Security\Desktop\Kursk.avi
Format                           : AVI
Format/Info                      : Audio Video Interleave
File size                        : 710 MiB
Duration                         : 52mn 18s
Overall bit rate                 : 1 899 Kbps
Writing application              : VirtualDubModRus 1.5.10.2 (build 2542/release)
Writing library                  : VirtualDubMod build 2542/release

Video
ID                               : 0
Format                           : MPEG-4 Visual
Format profile                   : Streaming Video@L1
Format settings, BVOP            : Yes
Format settings, QPel            : No
Format settings, GMC             : No warppoints
Format settings, Matrix          : Default (MPEG)
Codec ID                         : XVID
Codec ID/Hint                    : XviD
Duration                         : 52mn 18s
Bit rate                         : 1 793 Kbps
Width                            : 720 pixels
Height                           : 544 pixels
Display aspect ratio             : 4/3
Frame rate                       : 25.000 fps
Resolution                       : 24 bits
Colorimetry                      : 4:2:0
Scan type                        : Progressive
Bits/(Pixel*Frame)               : 0.183
Stream size                      : 671 MiB (94%)
Writing library                  : XviD 61

Audio
ID                               : 1
Format                           : MPEG Audio
Format version                   : Version 1
Format profile                   : Layer 3
Codec ID                         : 55
Codec ID/Hint                    : MP3
Duration                         : 52mn 18s
Bit rate mode                    : Constant
Bit rate                         : 96.0 Kbps
Channel(s)                       : 1 channel
Sampling rate                    : 48.0 KHz
Resolution                       : 16 bits
Stream size                      : 35.9 MiB (5%)
Alignment                        : Split accross interleaves
Interleave, duration             : 40 ms (1.00 video frame)
Interleave, preload duration     : 500 ms

picpicpicpicpicpic
Для увеличения картинки щелкните мышкой по превью

Этот торрент недоступен для скачивания без регистрации, однако доступен по публичной magnet-ссылке (источники с публичных трекеров). Перед использованием ссылки прочтите, пожалуйста Пользовательское соглашение, а также как можно дольше оставайтесь на раздаче! Для того, чтобы скачать сам торрент-файл (который видит больше источников), а также для того, чтобы поблагодарить релизера, вам необходимо зарегистрироваться. Если регистрироваться лень - вы можете также попробовать скачать релиз по нашим партнерским ссылкам ниже.

[underverse.su].t29036.torrent
Трекер: Зарегистрирован   [ 08.07.2013 09:10 ]  

Статус: проверено (by матроскин at 08.07.2013 09:11)
Поблагодарили: 5 человек
Тип торрента: публичный - доступные источники с открытых трекеров: 
Размер: 710 MB (занимает 0,16 DVDR, для записи нужно 1 болванка DVDR/RW)
 
 

матроскин Пол:Муж

08-Июл-2013 09:13

Hranitel Пол:Муж

13-Сен-2013 08:42

Вся Россия сейчас напоминает уходящий на дно "Курск". У нас очень странный менталитет. От любой официальной власти мы готовы стерпеть что угодно. Почему-то считается, что мы не имеем права на нормальную жизнь и просто жизнь без санкции кого-то свыше. Так называему "элиту" между тем составляют люди, которым нельзя доверить даже управление коровой. В Советское время у нас были средства спасения, моряков с "Курска" можно было спасти. Дерьмократы всю спасательную систему развалили как и всё остальное. Хорошо удаётся только дальше воровать, да перед нами щёки надувать во всю ширь. Государство имитируя бурную деятельность просто не выполняет своих функций. Кроме того проводит планомерный геноцид собственного народа. Автору большое спасибо за фильм! :good:

Яндекс.Метрика powered by Sphinx


В Н И М А Н И Е
Сайт не распространяет и не хранит электронные версии произведений, а лишь бесплатно и без коммерческой выгоды (не требуя взамен платы,
SMS и т.д.) предоставляет доступ к создаваемому пользователями каталогу ссылок на торрент-файлы, которые содержат только списки хеш-сумм.
Убедительная просьба с жалобами обращаться напрямую к пользователю, разместившему торрент файл.

Вверх