Loading...
Error

42 / 42 (Брайан Хелгеленд / Brian Helgeland) [2013, США, Драма, биография, спорт, BDRip] MVO + Original (Eng) + Subs (Rus, Eng)

Статистика раздачи
Размер:  1,46 GB   |    Зарегистрирован:  3 года 4 месяца   |    Скачан:  25 раз

Полного источника не было: 5 месяцев 7 дней

Сидов:  0  |  0 KB/s  ]   Личеров:  0  |  0 KB/s  ]

* - сиды/пиры с внешних источников

   
 
Автор Сообщение

BMike99 Пол:Муж

05-Июл-2013 17:31

42 / 42

Год выпуска: 2013
Выпущено: США / Warner Bros. Pictures, Legendary Pictures
Жанр: драма, биография, спорт
Продолжительность: 02:08:15
Перевод: Профессиональный (многоголосый закадровый) + Оригинальная дорожка
Cубтитры: Русские, Английские (внешние .srt*)
Режиссер:
Брайан Хелгеленд / Brian Helgeland
В ролях:
Харрисон Форд (Branch Rickey), Чэдвик Боузман (Jackie Robinson), Николь Бихери (Rachel Robinson), Кристофер Мелони (Leo Durocher), Райан Мерриман (Dixie Walker), Лукас Блэк (Pee Wee Reese), Андре Холлэнд (Wendell Smith), Алан Тьюдик (Ben Chapman), Хамиш Линклэйтер (Ralph Branca)
Описание:
Фильм посвящен тому, как Брэнч Рики и Джеки Робинсон уничтожили сегрегацию в бейсболе в 1947 году.

PS: Если видели "Человек, который изменил всё", обязательно посмотрите и эту картину.
|

Сэмпл | Трейлер
Тип релиза: BDRip [42.2013.1080p.BluRay.AVC.DTS-HD.MA.5.1-PublicHD]
Формат: AVI

Видео: 720x304 (2.37:1), 23.976 fps, XviD build 73 ~1235 kbps avg, 0.24 bit/pixel
Аудио #1: 48 kHz, AC3 Dolby Digital, 2/0 (L,R) ch, ~192.00 kbps avg (RUS)
Аудио #2: 48 kHz, AC3 Dolby Digital, 2/0 (L,R) ch, ~192.00 kbps avg (ENG)



picpicpic
Для увеличения картинки щелкните мышкой по превью


Код:

General
Complete name                            : D:\42_2013_BDRip_by_Dalemake.avi
Format                                   : AVI
Format/Info                              : Audio Video Interleave
File size                                : 1.46 GiB
Duration                                 : 2h 8mn
Overall bit rate                         : 1 634 Kbps
Writing application                      : VirtualDubMod 1.5.10.3 | www.virtualdub-fr.org || (build 2550/release)
Writing library                          : VirtualDubMod build 2550/release

Video
ID                                       : 0
Format                                   : MPEG-4 Visual
Format profile                           : Advanced Simple@L5
Format settings, BVOP                    : 1
Format settings, QPel                    : No
Format settings, GMC                     : No warppoints
Format settings, Matrix                  : Custom
Codec ID                                 : XVID
Codec ID/Hint                            : XviD
Duration                                 : 2h 8mn
Bit rate                                 : 1 236 Kbps
Width                                    : 720 pixels
Height                                   : 304 pixels
Display aspect ratio                     : 2.35:1
Frame rate                               : 23.976 fps
Color space                              : YUV
Chroma subsampling                       : 4:2:0
Bit depth                                : 8 bits
Scan type                                : Progressive
Compression mode                         : Lossy
Bits/(Pixel*Frame)                       : 0.236
Stream size                              : 1.11 GiB (76%)
Writing library                          : XviD 73

Audio #1
ID                                       : 1
Format                                   : AC-3
Format/Info                              : Audio Coding 3
Mode extension                           : CM (complete main)
Format settings, Endianness              : Big
Codec ID                                 : 2000
Duration                                 : 2h 8mn
Bit rate mode                            : Constant
Bit rate                                 : 192 Kbps
Channel(s)                               : 2 channels
Channel positions                        : Front: L R
Sampling rate                            : 48.0 KHz
Bit depth                                : 16 bits
Compression mode                         : Lossy
Stream size                              : 176 MiB (12%)
Alignment                                : Split accross interleaves
Interleave, duration                     : 42 ms (1.00 video frame)
Interleave, preload duration             : 500 ms

Audio #2
ID                                       : 2
Format                                   : AC-3
Format/Info                              : Audio Coding 3
Mode extension                           : CM (complete main)
Format settings, Endianness              : Big
Codec ID                                 : 2000
Duration                                 : 2h 8mn
Bit rate mode                            : Constant
Bit rate                                 : 192 Kbps
Channel(s)                               : 2 channels
Channel positions                        : Front: L R
Sampling rate                            : 48.0 KHz
Bit depth                                : 16 bits
Compression mode                         : Lossy
Stream size                              : 176 MiB (12%)
Alignment                                : Split accross interleaves
Interleave, duration                     : 42 ms (1.00 video frame)
Interleave, preload duration             : 500 ms

Этот торрент недоступен для скачивания без регистрации, однако доступен по публичной magnet-ссылке (источники с публичных трекеров). Перед использованием ссылки прочтите, пожалуйста Пользовательское соглашение, а также как можно дольше оставайтесь на раздаче! Для того, чтобы скачать сам торрент-файл (который видит больше источников), а также для того, чтобы поблагодарить релизера, вам необходимо зарегистрироваться. Если регистрироваться лень - вы можете также попробовать скачать релиз по нашим партнерским ссылкам ниже.

[underverse.su].t28969.torrent
Трекер: Зарегистрирован   [ 05.07.2013 17:31 ]  

Статус: проверено (by Чертёнок at 05.07.2013 18:22)
Поблагодарили: 3 человека
Тип торрента: публичный - доступные источники с открытых трекеров: 
Размер: 1,46 GB (занимает 0,33 DVDR, для записи нужно 1 болванка DVDR/RW)
 
 
Похожие темы
Форум Тема Автор Торрент Отв. Посл. сооб.
Зарубежное кино [DVDRip, Low-Res HDRip, и т.д.] 42 / 42 (Брайан Хелгеленд) [2013 г., драма, биография, спорт, BDRip] MVO + Original 90ytr90
6 | 0

0 | 1019

16

09.09.2013 13:29



Последний раз редактировалось: BMike99 (09.07.2013 20:27), всего редактировалось 3 раз(а)

Чертёнок Пол:Муж

05-Июл-2013 17:57

Скриншоты должны быть 720x304 :twisted:

Яндекс.Метрика powered by Sphinx


В Н И М А Н И Е
Сайт не распространяет и не хранит электронные версии произведений, а лишь бесплатно и без коммерческой выгоды (не требуя взамен платы,
SMS и т.д.) предоставляет доступ к создаваемому пользователями каталогу ссылок на торрент-файлы, которые содержат только списки хеш-сумм.
Убедительная просьба с жалобами обращаться напрямую к пользователю, разместившему торрент файл.

Вверх