Loading...
Error

Люди-тени / The shadow men (Тимоти Бонд) [1997 г., фантастика, DVDRip] MVO + VO + Original

Статистика раздачи
Размер:  1,46 GB   |    Зарегистрирован:  3 года 5 месяцев   |    Скачан:  9 раз

Полного источника не было: 5 месяцев 1 день

Сидов:  0  |  0 KB/s  ]   Личеров:  0  |  0 KB/s  ]

* - сиды/пиры с внешних источников

   
 
Автор Сообщение

Паукан Пол:Муж

05-Июл-2013 14:37

Люди-тени / The shadow men


Страна: США
Производство: Bruin Grip Services, Encounter Productions
Жанр: Фантастика
Год выпуска: 1997

Перевод: Профессиональный одноголосый, профессиональный многоголосый
Оригинальная аудиодорожка: Английская
Cубтитры: Нет

Режиссер: Тимоти Бонд
В ролях: Эрик Робертс, Шерилин Фенн, Дин Стокуэлл, Брендон Райан Баррет, Эндрю Прайн, Крис МакКарти, Том Постер, Валери Свифт, Ганс Хоус, Дэвид Бове



Описание: Семья Уилсонов отправилась в горы посмотреть на закат, красоту которого отец запомнил с детства. На заправочной станции старик предупредил, что в тех местах уже давно стали происходить нехорошие вещи… Но кто будет слушать старика? По пути домой, уже глубокой ночью, огромный ослепительный шар вызвал аварию машины. Происходящее продолжала снимать любительская видеокамера. Все члены семьи живы и целёхоньки оказались у себя дома. Правда, всех их стали преследовать кошмарные сны… Представители властей, полиция помогать им отказываются, утверждая, что они видели либо секретный самолёт, либо у них «глюки». Семья обращается за помощью к учёному, дом которого напоминает настоящую крепость…

Качество: DVDRip
Контейнер: AVI

Продолжительность: 01:30:26
Видео: 720x544 (1.32:1), 23.976 fps, XviD ~1650 kbps avg, 0.17 bit/pixel
Аудио: #1: 48 kHz, AC3 2.0 ~192.00 kbps avg (RUS)
Аудио: #2: 44.100 kHz, 2.0 ~256.00 kbps avg (RUS)
Аудио: #3: 48 kHz, AC3 2.0 ~192.00 kbps avg (ENG)
Общее

Формат : AVI
Формат/Информация : Audio Video Interleave
Размер файла : 1,46 Гбайт
Продолжительность : 1 ч. 30 м.
Общий поток : 2311 Кбит/сек
Программа кодирования : VirtualDubMod 1.5.10.2 (build 2540/release)
Библиотека кодирования : VirtualDubMod build 2540/release

Видео
Идентификатор : 0
Формат : MPEG-4 Visual
Профиль формата : Advanced Simple@L5
Параметр BVOP формата : 2
Параметр QPel формата : Нет
Параметр GMC формата : Без точки перехода
Параметр матрицы формата : Default (MPEG)
Режим смешивания : Сжатый битовый поток
Идентификатор кодека : XVID
Идентификатор кодека/Подсказка : XviD
Продолжительность : 1 ч. 30 м.
Битрейт : 1652 Кбит/сек
Ширина : 720 пикселей
Высота : 544 пикселя
Соотношение сторон : 4:3
Частота кадров : 23,976 кадра/сек
Цветовое пространство : YUV
Субдискретизация насыщенности : 4:2:0
Битовая глубина : 8 бит
Тип развёртки : Прогрессивная
Метод сжатия : С потерями
Бит/(Пиксели*Кадры) : 0.176
Размер потока : 1,04 Гбайт (71%)
Библиотека кодирования : XviD 1.2.1 (UTC 2008-12-04)

Аудио #1
Идентификатор : 1
Формат : AC-3
Формат/Информация : Audio Coding 3
Расширение режима : CM (complete main)
Параметр Endianness формата : Big
Идентификатор кодека : 2000
Продолжительность : 1 ч. 30 м.
Вид битрейта : Постоянный
Битрейт : 192 Кбит/сек
Каналы : 2 канала
Расположение каналов : Front: L R
Частота : 48,0 КГц
Битовая глубина : 16 бит
Метод сжатия : С потерями
Размер потока : 124 Мбайт (8%)
Выравнивание : Разделение по промежуткам
Продолжительность промежутка : 42 мс. (1,00 видеокадр)
Время предзагрузки промежутка : 500 мс.

Аудио #2
Идентификатор : 2
Формат : MPEG Audio
Версия формата : Version 1
Профиль формата : Layer 3
Идентификатор кодека : 55
Идентификатор кодека/Подсказка : MP3
Продолжительность : 1 ч. 30 м.
Вид битрейта : Постоянный
Битрейт : 256 Кбит/сек
Каналы : 2 канала
Частота : 44,1 КГц
Метод сжатия : С потерями
Размер потока : 166 Мбайт (11%)
Выравнивание : Разделение по промежуткам
Продолжительность промежутка : 42 мс. (1,00 видеокадр)
Время предзагрузки промежутка : 500 мс.

Аудио #3
Идентификатор : 3
Формат : AC-3
Формат/Информация : Audio Coding 3
Расширение режима : CM (complete main)
Параметр Endianness формата : Big
Идентификатор кодека : 2000
Продолжительность : 1 ч. 30 м.
Вид битрейта : Постоянный
Битрейт : 192 Кбит/сек
Каналы : 2 канала
Расположение каналов : Front: L R
Частота : 48,0 КГц
Битовая глубина : 16 бит
Метод сжатия : С потерями
Размер потока : 124 Мбайт (8%)
Выравнивание : Разделение по промежуткам
Продолжительность промежутка : 42 мс. (1,00 видеокадр)
Время предзагрузки промежутка : 500 мс.
pic pic pic
Для увеличения картинки щелкните мышкой по превью

Этот торрент недоступен для скачивания без регистрации, однако доступен по публичной magnet-ссылке (источники с публичных трекеров). Перед использованием ссылки прочтите, пожалуйста Пользовательское соглашение, а также как можно дольше оставайтесь на раздаче! Для того, чтобы скачать сам торрент-файл (который видит больше источников), а также для того, чтобы поблагодарить релизера, вам необходимо зарегистрироваться. Если регистрироваться лень - вы можете также попробовать скачать релиз по нашим партнерским ссылкам ниже.

[underverse.su].t28962.torrent
Трекер: Зарегистрирован   [ 05.07.2013 14:37 ]  

Статус: проверено (by Паукан at 05.07.2013 14:37)
Поблагодарили: 1 человек
Тип торрента: публичный - доступные источники с открытых трекеров: 
Размер: 1,46 GB (занимает 0,33 DVDR, для записи нужно 1 болванка DVDR/RW)
 
 

antenarivu Пол:Муж

06-Июл-2013 20:08

С праздником Купальской Ночи!!!

Яндекс.Метрика powered by Sphinx


В Н И М А Н И Е
Сайт не распространяет и не хранит электронные версии произведений, а лишь бесплатно и без коммерческой выгоды (не требуя взамен платы,
SMS и т.д.) предоставляет доступ к создаваемому пользователями каталогу ссылок на торрент-файлы, которые содержат только списки хеш-сумм.
Убедительная просьба с жалобами обращаться напрямую к пользователю, разместившему торрент файл.

Вверх