Loading...
Error

Шутки большого человека. Евгений Моргунов [2009 г., биография, документальный, TVRip]

Статистика раздачи
Размер:  505 MB   |    Зарегистрирован:  3 года 5 месяцев   |    Скачан:  5 раз

Полного источника не было: 2 года 1 месяц

Сидов:  0  |  0 KB/s  ]   Личеров:  0  |  0 KB/s  ]

* - сиды/пиры с внешних источников

   
 
Автор Сообщение

матроскин Пол:Муж

05-Июл-2013 12:05

Шутки большого человека. Евгений Моргунов


Год выпуска: 2009
Жанр: биография, документальный
Страна: Россия
Режиссер: Ольга Доброва-Куликова
Выпущено: 5 канал Петербуржского ТВ
Сюжет фильма:
1943 год. Москва. Кремль. В кабинет Сталина среди важных государственных бумаг, телеграмм и писем попадает простой конверт с надписью от руки: "Товарищу Сталину от Жени Моргунова". Слова "Прошу принять меня в искусство" чем-то трогают Сталина. И он лично дает распоряжение зачислить Моргунова во ВГИК. Впоследствии, когда народный любимец, заслуженный артист РСФСР Евгений Моргунов рассказывал эту историю, ему не верили. Считали очередным розыгрышем, в которых Моргунову равных не было.В актерской среде Моргунова называли не иначе как Бывалым, по прозвищу персонажа комедий Леонида Гайдая. Окружающим казалось, что сама жизнь актера – продолжение этих фильмов, своего рода непрекращающийся фарс. Моргунов шутил всегда и везде – в автобусе, на приеме у врача, в кабинете чиновника, в булочной. Разыгрывал всех – друзей, коллег, начальников и даже незнакомых людей. Делал это с чрезвычайно серьезным видом, и человек часто не догадывался, что стал объектом очередной шутки актера.Но только очень близкие люди знали, что образ Бывалого, шутки и розыгрыши - это всего лишь маска…
Качество видео: TVRip

Продолжительность: 00:43:09
Формат: avi
Видео: XviD, 704x528, 1497 kbps
Аудио: русский, оригинал, MP3 2.0, 128 kbps

Код:

General
Complete name                    : C:\Users\Security\Desktop\Шутки большого человека. Евгений Моргунов..avi
Format                           : AVI
Format/Info                      : Audio Video Interleave
File size                        : 505 MiB
Duration                         : 43mn 9s
Overall bit rate                 : 1 635 Kbps
Writing library                  : VirtualDub build 35390/release

Video
ID                               : 0
Format                           : MPEG-4 Visual
Format profile                   : Streaming Video@L1
Format settings, BVOP            : Yes
Format settings, QPel            : No
Format settings, GMC             : No warppoints
Format settings, Matrix          : Default (H.263)
Muxing mode                      : Packed bitstream
Codec ID                         : XVID
Codec ID/Hint                    : XviD
Duration                         : 43mn 9s
Bit rate                         : 1 497 Kbps
Width                            : 704 pixels
Height                           : 528 pixels
Display aspect ratio             : 4/3
Frame rate                       : 25.000 fps
Resolution                       : 24 bits
Colorimetry                      : 4:2:0
Scan type                        : Progressive
Bits/(Pixel*Frame)               : 0.161
Stream size                      : 462 MiB (92%)
Writing library                  : XviD 1.2.1 (UTC 2008-12-04)

Audio
ID                               : 1
Format                           : MPEG Audio
Format version                   : Version 1
Format profile                   : Layer 3
Codec ID                         : 55
Codec ID/Hint                    : MP3
Duration                         : 43mn 9s
Bit rate mode                    : Constant
Bit rate                         : 128 Kbps
Channel(s)                       : 2 channels
Sampling rate                    : 48.0 KHz
Resolution                       : 16 bits
Stream size                      : 39.5 MiB (8%)
Alignment                        : Split accross interleaves
Interleave, duration             : 40 ms (1.00 video frame)
Interleave, preload duration     : 500 ms

picpicpicpicpicpic
Для увеличения картинки щелкните мышкой по превью

Этот торрент недоступен для скачивания без регистрации, однако доступен по публичной magnet-ссылке (источники с публичных трекеров). Перед использованием ссылки прочтите, пожалуйста Пользовательское соглашение, а также как можно дольше оставайтесь на раздаче! Для того, чтобы скачать сам торрент-файл (который видит больше источников), а также для того, чтобы поблагодарить релизера, вам необходимо зарегистрироваться. Если регистрироваться лень - вы можете также попробовать скачать релиз по нашим партнерским ссылкам ниже.

[underverse.su].t28952.torrent
Трекер: Зарегистрирован   [ 05.07.2013 12:05 ]  

Статус: проверено (by матроскин at 05.07.2013 12:06)
Поблагодарили: 2 человека
Тип торрента: публичный - доступные источники с открытых трекеров: 
Размер: 505 MB (занимает 0,11 DVDR, для записи нужно 1 болванка DVDR/RW)
 
 

матроскин Пол:Муж

05-Июл-2013 12:07


Яндекс.Метрика powered by Sphinx


В Н И М А Н И Е
Сайт не распространяет и не хранит электронные версии произведений, а лишь бесплатно и без коммерческой выгоды (не требуя взамен платы,
SMS и т.д.) предоставляет доступ к создаваемому пользователями каталогу ссылок на торрент-файлы, которые содержат только списки хеш-сумм.
Убедительная просьба с жалобами обращаться напрямую к пользователю, разместившему торрент файл.

Вверх