Loading...
Error

Кошмар на улице Вязов / A Nightmare on Elm Street (Сэмюэл Байер) [2010 г., детектив, триллер, ужасы, BDRip 720р ] Dub

Статистика раздачи
Размер:  4,17 GB   |    Зарегистрирован:  3 года 4 месяца   |    Скачан:  17 раз

Полного источника не было: 8 часов

Сидов:  0  |  0 KB/s  ]   Личеров:  0  |  0 KB/s  ]

* - сиды/пиры с внешних источников

   
 
Автор Сообщение

MakcTak Пол:Муж

04-Июл-2013 19:59

Кошмар на улице Вязов / A Nightmare on Elm Street


Год выпуска: 2010
Жанр: детектив, триллер, ужасы
Страна: США
Режиссер: Сэмюэл Байер
В ролях: Джеки Эрл Хейли, Кайл Галлнер, Руни Мара, Кэти Кэссиди, Томас Деккер, Келлан Латс, Клэнси Браун, Конни Бриттон, Лия Д. Мортенсен, Джулиана Дэмм
Сюжет фильма:
Группу подростков из пригорода преследует один и тот же кошмар: в снах за ними крадется жуткий, обезображенный убийца — Фредди Крюгер. Они могут защитить друг друга наяву, во сне же — остаются один на один с ожившим кошмаром, и шансы спастись стремительно приближаются к нулю… ведь, убитые во сне, они умирают и наяву.

  • Мировая премьера: 27 апреля 2010,
  • Российская премьера: 6 мая 2010

Качество видео: BDRip 720р

Продолжительность: 01:35:32
Формат: MKV
Видео: x264, 1280х532, 4910 kbps
Аудио: русский, дублированный [лицензия], AC3 5.1, 640 kbps

Код:

[img]http://underverse.su/images/wiz/duration.png[/img] [b]Продолжительность: [/b]01:35:32
[img]http://underverse.su/images/wiz/info.png[/img] [b]Формат: [/b]mkv
[img]http://underverse.su/images/wiz/vtrack.png[/img] [b]Видео: [/b] x264, 1280x532, 4910 kbps
[img]http://underverse.su/images/wiz/atrack.png[/img] [b]Аудио #1: [/b]русский, дублированный [color=darkblue][лицензия][/color], AC3 5.1, 640 kbps
[img]http://underverse.su/images/wiz/atrack.png[/img] [b]Аудио #2: [/b]украинский, не требуется, AC3 5.1, 384 kbps
[img]http://underverse.su/images/wiz/atrack.png[/img] [b]Аудио #3: [/b]английский, оригинал, AC3 2.0, 192 kbps
[img]http://underverse.su/images/wiz/desc.png[/img] [b]Субтитры #1: [/b]вшитые отключаемые, S_TEXT/UTF8, английский
[img]http://underverse.su/images/wiz/desc.png[/img] [b]Субтитры #2: [/b]вшитые отключаемые, S_TEXT/UTF8, русский
[img]http://underverse.su/images/wiz/desc.png[/img] [b]Субтитры #3: [/b]вшитые отключаемые, S_TEXT/UTF8, английский
[spoiler="[b]MediaInfo[/b]"][code]General
Complete name                    : C:\Users\MakcTak\Desktop\вяз\Кошмар на улице Вязов.mkv
Format                           : Matroska
File size                        : 4.17 GiB
Duration                         : 1h 35mn
Overall bit rate                 : 6 251 Kbps
Movie name                       : Кошмар на улице Вязов / A Nightmare on Elm Street (2010) BDRip 720p от FireBit - firebit.org
Encoded date                     : UTC 2011-10-06 16:58:19
Writing application              : mkvmerge v2.3.0 ('Freak U') built on Sep  8 2008 18:32:16
Writing library                  : libebml v0.7.7 + libmatroska v0.8.1

Video
ID                               : 1
Format                           : AVC
Format/Info                      : Advanced Video Codec
Format profile                   : High@L4.1
Format settings, CABAC           : Yes
Format settings, ReFrames        : 8 frames
Muxing mode                      : Container profile=Unknown@4.1
Codec ID                         : V_MPEG4/ISO/AVC
Duration                         : 1h 35mn
Bit rate                         : 4 910 Kbps
Nominal bit rate                 : 5 033 Kbps
Width                            : 1 280 pixels
Height                           : 532 pixels
Display aspect ratio             : 2.406
Frame rate                       : 23.976 fps
Resolution                       : 24 bits
Colorimetry                      : 4:2:0
Scan type                        : Progressive
Bits/(Pixel*Frame)               : 0.301
Stream size                      : 3.27 GiB (78%)
Title                            : http://firebit.org
Writing library                  : x264 core 104 r1703 cd21d05
Encoding settings                : cabac=1 / ref=8 / deblock=1:-3:-3 / analyse=0x3:0x113 / me=umh / subme=9 / psy=1 / psy_rd=1.05:0.10 / mixed_ref=1 / me_range=32 / chroma_me=1 / trellis=2 / 8x8dct=1 / cqm=0 / deadzone=21,11 / fast_pskip=0 / chroma_qp_offset=-2 / threads=6 / sliced_threads=0 / nr=0 / decimate=1 / interlaced=0 / constrained_intra=0 / bframes=4 / b_pyramid=2 / b_adapt=2 / b_bias=0 / direct=3 / weightb=1 / open_gop=0 / weightp=2 / keyint=250 / keyint_min=23 / scenecut=40 / intra_refresh=0 / rc_lookahead=60 / rc=2pass / mbtree=1 / bitrate=5033 / ratetol=1.0 / qcomp=0.60 / qpmin=10 / qpmax=51 / qpstep=4 / cplxblur=20.0 / qblur=0.5 / vbv_maxrate=40000 / vbv_bufsize=30000 / ip_ratio=1.40 / aq=1:0.80 / nal_hrd=none
Language                         : English

Audio #1
ID                               : 2
Format                           : AC-3
Format/Info                      : Audio Coding 3
Codec ID                         : A_AC3
Duration                         : 1h 35mn
Bit rate mode                    : Constant
Bit rate                         : 640 Kbps
Channel(s)                       : 6 channels
Channel positions                : Front: L C R, Surround: L R, LFE
Sampling rate                    : 48.0 KHz
Stream size                      : 437 MiB (10%)
Title                            : http://firebit.org
Language                         : Russian

Audio #2
ID                               : 3
Format                           : AC-3
Format/Info                      : Audio Coding 3
Codec ID                         : A_AC3
Duration                         : 1h 35mn
Bit rate mode                    : Constant
Bit rate                         : 384 Kbps
Channel(s)                       : 6 channels
Channel positions                : Front: L C R, Surround: L R, LFE
Sampling rate                    : 48.0 KHz
Stream size                      : 262 MiB (6%)
Title                            : http://firebit.org
Language                         : Ukrainian

Audio #3
ID                               : 4
Format                           : AC-3
Format/Info                      : Audio Coding 3
Codec ID                         : A_AC3
Duration                         : 1h 35mn
Bit rate mode                    : Constant
Bit rate                         : 192 Kbps
Channel(s)                       : 2 channels
Channel positions                : L R
Sampling rate                    : 48.0 KHz
Stream size                      : 131 MiB (3%)
Title                            : http://firebit.org
Language                         : English

Text #1
ID                               : 5
Format                           : UTF-8
Codec ID                         : S_TEXT/UTF8
Codec ID/Info                    : UTF-8 Plain Text
Title                            : http://firebit.org
Language                         : English

Text #2
ID                               : 6
Format                           : UTF-8
Codec ID                         : S_TEXT/UTF8
Codec ID/Info                    : UTF-8 Plain Text
Title                            : http://firebit.org
Language                         : Russian

Text #3
ID                               : 7
Format                           : UTF-8
Codec ID                         : S_TEXT/UTF8
Codec ID/Info                    : UTF-8 Plain Text
Title                            : http://firebit.org
Language                         : English

Menu
00:00:00.000                     : en:00:00:00.000
00:09:25.189                     : en:00:09:25.189
00:20:58.799                     : en:00:20:58.799
00:30:23.363                     : en:00:30:23.363
00:40:56.036                     : en:00:40:56.036
00:53:04.931                     : en:00:53:04.931
01:01:09.999                     : en:01:01:09.999
01:10:08.162                     : en:01:10:08.162
01:20:01.254                     : en:01:20:01.254
01:29:58.559                     : en:01:29:58.559
01:35:31.475                     : en:01:35:31.475

[/code][/spoiler]
picpicpicpicpic
Для увеличения картинки щелкните мышкой по превью

Этот торрент недоступен для скачивания без регистрации, однако доступен по публичной magnet-ссылке (источники с публичных трекеров). Перед использованием ссылки прочтите, пожалуйста Пользовательское соглашение, а также как можно дольше оставайтесь на раздаче! Для того, чтобы скачать сам торрент-файл (который видит больше источников), а также для того, чтобы поблагодарить релизера, вам необходимо зарегистрироваться. Если регистрироваться лень - вы можете также попробовать скачать релиз по нашим партнерским ссылкам ниже.

[underverse.su].t28935.torrent
Трекер: Зарегистрирован   [ 04.07.2013 22:24 ]  

Статус: проверено (by Чертёнок at 04.07.2013 22:25)
Поблагодарили: 2 человека
Тип торрента: публичный - доступные источники с открытых трекеров: 
Размер: 4,17 GB (занимает 0,95 DVDR, для записи нужно 1 болванка DVDR/RW)
 
 
Похожие темы
Форум Тема Автор Торрент Отв. Посл. сооб.
Зарубежное кино [DVDRip, Low-Res HDRip, и т.д.] Кошмар на улице Вязов / A Nightmare on Elm Street (Сэмюэл Байер) [2010 г., ужасы, триллер, детектив, BDRip-AVC] STALKOID
11 | 0

2 | 779

11

10.01.2013 14:51

Архив Кошмар на улице Вязов / A Nightmare on Elm Street (Сэмюэл Байер / Samuel Bayer) [2010 г., ужасы, триллер, детектив, DVD-9] SKRiptus
0 | 0

4 | 729

3

16.06.2011 08:09


Яндекс.Метрика powered by Sphinx


В Н И М А Н И Е
Сайт не распространяет и не хранит электронные версии произведений, а лишь бесплатно и без коммерческой выгоды (не требуя взамен платы,
SMS и т.д.) предоставляет доступ к создаваемому пользователями каталогу ссылок на торрент-файлы, которые содержат только списки хеш-сумм.
Убедительная просьба с жалобами обращаться напрямую к пользователю, разместившему торрент файл.

Вверх