Loading...
Error

Гроб / Coffin (Кипп Трайббл, Дерик Уинго) [2011 г., ужасы, триллер, криминал, детектив, BDRip-AVC] MVO + VO + Original

Статистика раздачи
Размер:  1,44 GB   |    Зарегистрирован:  3 года 5 месяцев   |    Скачан:  11 раз

Полного источника не было: 3 года 1 месяц

Сидов:  0  |  0 KB/s  ]   Личеров:  0  |  0 KB/s  ]

* - сиды/пиры с внешних источников

   
 
Автор Сообщение

Паукан Пол:Муж

04-Июл-2013 09:05

Гроб / Coffin


Название: Гроб
Оригинальное название: Coffin
Год выхода: 2011
Жанр: Ужасы, триллер, криминал, детектив
Режиссер: Кипп Трайббл, Дерик Уинго
В ролях: Кевин Сорбо, Брюс Дэвисон, Патрик Барнитт, Джонни Алонсо, Санни Доенч, Дэвид Бэнкс, Люк Барнетт, Ральф Киприано, Дэниэл Майкл Де Люка, Бернхард Эйчхольц, Моника Жизелль, Спенсер Джонсон

О фильме:
Незнакомец в маске говорит Джеку, что его отдельно проживающая супруга и ее любовник похоронены заживо в гробу и кислород кончится через 75 минут. Он должен вступить в опасную игру в кошки-мышки с незнакомцем в маске, чтобы спасти свою жену. .. и себя самого.
Огромная благодарность Media-Art-Club за созданный постер к раздаче
General
Unique ID : 202993452619333303264604672672407076389 (0x98B71DEC987A1F37A11DAB7107B5BE25)

Format : Matroska
Format version : Version 2
File size : 1.44 GiB
Duration : 1h 26mn
Overall bit rate : 2 389 Kbps
Movie name : Grob (2011) BDRip-AVC --MediaClub--=[Викс]=
Encoded date : UTC 2013-07-03 11:57:43
Writing application : mkvmerge v5.8.0 ('No Sleep / Pillow') built on Sep 2 2012 15:37:04
Writing library : libebml v1.2.3 + libmatroska v1.3.0

Video
ID : 1
Format : AVC
Format/Info : Advanced Video Codec
Format profile : High@L4.1
Format settings, CABAC : Yes
Format settings, ReFrames : 8 frames
Codec ID : V_MPEG4/ISO/AVC
Duration : 1h 26mn
Bit rate : 1 300 Kbps
Width : 1 024 pixels
Height : 576 pixels
Display aspect ratio : 16:9
Frame rate mode : Constant
Frame rate : 23.976 fps
Color space : YUV
Chroma subsampling : 4:2:0
Bit depth : 8 bits
Scan type : Progressive
Bits/(Pixel*Frame) : 0.092
Stream size : 772 MiB (52%)
Writing library : x264 core 133 r2334 a3ac64b
Encoding settings : cabac=1 / ref=8 / deblock=1:-2:-2 / analyse=0x3:0x113 / me=umh / subme=11 / psy=1 / psy_rd=1.00:0.00 / mixed_ref=1 / me_range=48 / chroma_me=1 / trellis=2 / 8x8dct=1 / cqm=0 / deadzone=21,11 / fast_pskip=0 / chroma_qp_offset=1 / threads=6 / lookahead_threads=1 / sliced_threads=0 / nr=0 / decimate=0 / interlaced=0 / bluray_compat=0 / constrained_intra=0 / bframes=8 / b_pyramid=2 / b_adapt=2 / b_bias=0 / direct=3 / weightb=1 / open_gop=0 / weightp=2 / keyint=240 / keyint_min=23 / scenecut=40 / intra_refresh=0 / rc_lookahead=40 / rc=2pass / mbtree=0 / bitrate=1300 / ratetol=1.0 / qcomp=0.60 / qpmin=0 / qpmax=69 / qpstep=4 / cplxblur=20.0 / qblur=0.5 / vbv_maxrate=50000 / vbv_bufsize=52500 / nal_hrd=none / ip_ratio=1.40 / pb_ratio=1.30 / aq=1:0.80
Language : English
Default : Yes
Forced : No

Audio #1
ID : 2
Format : AC-3
Format/Info : Audio Coding 3
Mode extension : CM (complete main)
Format settings, Endianness : Big
Codec ID : A_AC3
Duration : 1h 26mn
Bit rate mode : Constant
Bit rate : 192 Kbps
Channel(s) : 2 channels
Channel positions : Front: L R
Sampling rate : 48.0 KHz
Bit depth : 16 bits
Compression mode : Lossy
Stream size : 118 MiB (8%)
Title : PM (NTV+)
Language : Russian
Default : Yes
Forced : No

Audio #2
ID : 3
Format : AC-3
Format/Info : Audio Coding 3
Mode extension : CM (complete main)
Format settings, Endianness : Big
Codec ID : A_AC3
Duration : 1h 26mn
Bit rate mode : Constant
Bit rate : 448 Kbps
Channel(s) : 6 channels
Channel positions : Front: L C R, Side: L R, LFE
Sampling rate : 48.0 KHz
Bit depth : 16 bits
Compression mode : Lossy
Stream size : 276 MiB (19%)
Title : LO (den904)
Language : Russian
Default : No
Forced : No

Audio #3
ID : 4
Format : AC-3
Format/Info : Audio Coding 3
Mode extension : CM (complete main)
Format settings, Endianness : Big
Codec ID : A_AC3
Duration : 1h 26mn
Bit rate mode : Constant
Bit rate : 448 Kbps
Channel(s) : 6 channels
Channel positions : Front: L C R, Side: L R, LFE
Sampling rate : 48.0 KHz
Bit depth : 16 bits
Compression mode : Lossy
Stream size : 276 MiB (19%)
Language : English
Default : No
Forced : No

Menu
00:00:00.000 : :Chapter 01
00:09:59.974 : :Chapter 02
00:19:59.990 : :Chapter 03
00:29:59.964 : :Chapter 04
00:39:59.980 : :Chapter 05
00:49:59.955 : :Chapter 06
00:59:59.971 : :Chapter 07
01:09:59.945 : :Chapter 08
01:19:59.920 : :Chapter 09
---[Information] [02.07.2013 5:23:06] x264 [info]: frame I:815 Avg QP:11.59 size: 39986 PSNR Mean Y:52.94 U:53.79 V:54.52 Avg:53.07 Global:51.74
---[Information] [02.07.2013 5:23:07] x264 [info]: frame P:26770 Avg QP:14.75 size: 14294 PSNR Mean Y:51.30 U:53.74 V:54.62 Avg:51.63 Global:50.40
---[Information] [02.07.2013 5:23:07] x264 [info]: frame B:96277 Avg QP:17.42 size: 4396 PSNR Mean Y:50.88 U:52.58 V:53.74 Avg:51.24 Global:49.78
Официальный сайт

Страна: США
Студия: Skyrocket Productions
Продолжительность: 01:26:06
Перевод: Профессиональный многоголосый (НТВ+), любительский одноголосый (den904)

Файл
Кодек: x264
Качество: BDRip-AVC
Видео: MPEG-4 AVC, 1300 Кбит/с, 1024x576, 23.976 кадр/с
Звук:
Аудио #1: Русский (AC3, 2 ch, 192 Кбит/с) / Профессиональный многоголосый (НТВ+)
Аудио #2: Русский (AC3, 6 ch, 448 Кбит/с) / Любительский одноголосый (den904)
Аудио #3: Английский (AC3, 6 ch, 448 Кбит/с)

Семпл

pic pic pic
Для увеличения картинки щелкните мышкой по превью

Этот торрент недоступен для скачивания без регистрации, однако доступен по публичной magnet-ссылке (источники с публичных трекеров). Перед использованием ссылки прочтите, пожалуйста Пользовательское соглашение, а также как можно дольше оставайтесь на раздаче! Для того, чтобы скачать сам торрент-файл (который видит больше источников), а также для того, чтобы поблагодарить релизера, вам необходимо зарегистрироваться. Если регистрироваться лень - вы можете также попробовать скачать релиз по нашим партнерским ссылкам ниже.

[underverse.su].t28923.torrent
Трекер: Зарегистрирован   [ 04.07.2013 09:05 ]  

Статус: проверено (by Паукан at 04.07.2013 09:05)
Поблагодарили: 1 человек
Тип торрента: публичный - доступные источники с открытых трекеров: 
Размер: 1,44 GB (занимает 0,33 DVDR, для записи нужно 1 болванка DVDR/RW)
 
 
Похожие темы
Форум Тема Автор Торрент Отв. Посл. сооб.
Зарубежное кино [DVDRip, Low-Res HDRip, и т.д.] Гроб / Coffin (Кипп Трайббл, Дерик Уинго) [2011 г., ужасы, триллер, криминал, детектив, DVDRip] DVO [НТВ+] + Original RG NewCinema
8 | 0

0 | 410

13

05.12.2012 18:56


Яндекс.Метрика powered by Sphinx


В Н И М А Н И Е
Сайт не распространяет и не хранит электронные версии произведений, а лишь бесплатно и без коммерческой выгоды (не требуя взамен платы,
SMS и т.д.) предоставляет доступ к создаваемому пользователями каталогу ссылок на торрент-файлы, которые содержат только списки хеш-сумм.
Убедительная просьба с жалобами обращаться напрямую к пользователю, разместившему торрент файл.

Вверх