Loading...
Error

Волшебная долина / Magic Valley (Джаффе Зинн / Jaffe Zinn) [2011 г., драма, HDRip] DVO

Статистика раздачи
Размер:  1,14 GB   |    Зарегистрирован:  3 года 5 месяцев   |    Скачан:  14 раз

Полного источника не было: 9 часов

Сидов:  0  |  0 KB/s  ]   Личеров:  0  |  0 KB/s  ]

* - сиды/пиры с внешних источников

   
 
Автор Сообщение

Паукан Пол:Муж

03-Июл-2013 09:00

Волшебная долина / Magic Valley


Страна: США
Жанр: драма
Год выпуска: 2011
Продолжительность: 01:25:00

Перевод: Любительский (двухголосый закадровый) [RG "VictoryFilms"]
Cубтитры: нет
Оригинальная аудиодорожка: нет

Режиссер: Джаффе Зинн / Jaffe Zinn

В ролях: Скотт Гленн, Кайл Галлнер, Элисон Эллиот, Брэд Хенке, Джонни Льюис, Уилл Эстес

Описание: Это история о том, как случай может обрушиться на нас одним сонным деньком и изменить нашу жизнь навсегда.

Сэмпл: http://multi-up.com/880567

Качество видео: HDRip
Формат видео: AVI



Видео: 720x304 (2.37:1), 23.976 fps, XviD build 50 ~1703 kbps avg, 0.32 bit/pixel
Аудио: 44.100 kHz, MPEG Layer 3, 2 ch, ~192.00 kbps avg
Общее

Формат : AVI
Формат/Информация : Audio Video Interleave
Размер файла : 1,14 Гбайт
Продолжительность : 1 ч. 25 м.
Общий поток : 1905 Кбит/сек
Название фильма : Magic Valley
Жанр : Drama
Программа кодирования : VirtualDubMod 1.5.10.2 (build 2540/release)
Формат оригинала/Имя : Movie
Правообладатель : Lady-X
Примечание : Rg Victory Films

Видео
Идентификатор : 0
Формат : MPEG-4 Visual
Профиль формата : Advanced Simple@L5
Параметр BVOP формата : 1
Параметр QPel формата : Нет
Параметр GMC формата : Без точки перехода
Параметр матрицы формата : Default (H.263)
Идентификатор кодека : XVID
Идентификатор кодека/Подсказка : XviD
Продолжительность : 1 ч. 25 м.
Битрейт : 1703 Кбит/сек
Ширина : 720 пикселей
Высота : 304 пикселя
Соотношение сторон : 2,35:1
Частота кадров : 23,976 кадра/сек
Цветовое пространство : YUV
Субдискретизация насыщенности : 4:2:0
Битовая глубина : 8 бит
Тип развёртки : Прогрессивная
Метод сжатия : С потерями
Бит/(Пиксели*Кадры) : 0.325
Размер потока : 1,02 Гбайт (89%)
Библиотека кодирования : XviD 1.2.1 (UTC 2008-12-04)

Аудио
Идентификатор : 1
Формат : MPEG Audio
Версия формата : Version 1
Профиль формата : Layer 3
Идентификатор кодека : 55
Идентификатор кодека/Подсказка : MP3
Продолжительность : 1 ч. 25 м.
Вид битрейта : Постоянный
Битрейт : 192 Кбит/сек
Каналы : 2 канала
Частота : 44,1 КГц
Метод сжатия : С потерями
Размер потока : 117 Мбайт (10%)
Выравнивание : Разделение по промежуткам
Продолжительность промежутка : 42 мс. (1,00 видеокадр)
Время предзагрузки промежутка : 500 мс.
pic pic pic
Для увеличения картинки щелкните мышкой по превью

Этот торрент недоступен для скачивания без регистрации, однако доступен по публичной magnet-ссылке (источники с публичных трекеров). Перед использованием ссылки прочтите, пожалуйста Пользовательское соглашение, а также как можно дольше оставайтесь на раздаче! Для того, чтобы скачать сам торрент-файл (который видит больше источников), а также для того, чтобы поблагодарить релизера, вам необходимо зарегистрироваться. Если регистрироваться лень - вы можете также попробовать скачать релиз по нашим партнерским ссылкам ниже.

[underverse.su].t28895.torrent
Трекер: Зарегистрирован   [ 03.07.2013 09:00 ]  

Статус: проверено (by Паукан at 03.07.2013 09:00)
Поблагодарили: 3 человека
Тип торрента: публичный - доступные источники с открытых трекеров: 
Размер: 1,14 GB (занимает 0,26 DVDR, для записи нужно 1 болванка DVDR/RW)
 
 
Похожие темы
Форум Тема Автор Торрент Отв. Посл. сооб.
* Зарубежные сериалы Волшебная шкатулка / Шкатулка наслаждений / The Box of Delights (1-6 из 6) (Ренни Рай) [1984 г., фэнтези, семейный, DVDRip] VO + Original + Subs makkol
1 | 0

1 | 301

1

02.06.2016 09:47

Зарубежные мультфильмы Волшебная страна чудес / Magic Wonderland (Цзяньрон Ву, Леон Динг) [2014 г., Мультфильм, фэнтези, приключения, анимация, сказка, WEB-DLRip] Dub dnestrovsk
1 | 0

0 | 691

29

03.05.2015 10:11


Яндекс.Метрика powered by Sphinx


В Н И М А Н И Е
Сайт не распространяет и не хранит электронные версии произведений, а лишь бесплатно и без коммерческой выгоды (не требуя взамен платы,
SMS и т.д.) предоставляет доступ к создаваемому пользователями каталогу ссылок на торрент-файлы, которые содержат только списки хеш-сумм.
Убедительная просьба с жалобами обращаться напрямую к пользователю, разместившему торрент файл.

Вверх