Loading...
Error

Наемные убийцы / Assassins (Ричард Доннер) [1995 г., боевик, триллер, криминал, BDRip] Dub

Статистика раздачи
Размер:  1,46 GB   |    Зарегистрирован:  3 года 5 месяцев   |    Скачан:  16 раз

Полного источника не было: 5 месяцев 1 день

Сидов:  0  |  0 KB/s  ]   Личеров:  0  |  0 KB/s  ]

* - сиды/пиры с внешних источников

   
 
Автор Сообщение

Паукан Пол:Муж

03-Июл-2013 08:02

Наемные убийцы / Assassins


Название: Наемные убийцы
Оригинальное название: Assassins
Год выхода: 1995
Жанр: боевик, триллер, криминал
Режиссер: Ричард Доннер
В ролях: Сильвестр Сталлоне (Robert Rath,), Антонио Бандерас (Miguel Bain), Джулианна Мур (Electra,), Анатолий Давыдов (Nicolai Tashlinkov), Мьюз Уотсон (Ketcham), Стив Кэхэн (Alan Branch), Келли Роуэн (Jennifer, Electra's Neighbor), Рид Даймонд (Bob), Кай Вулфф (Remy), Керри Скалски (Buyer with Remy), Джеймс Дуглас Хэскинс (Buyer with Remy), Стивен Лиска (Cop)


О фильме:
Роберт Рэт - лучший киллер в округе, но кодекс чести и чувство долга, что некогда составляли часть его смертельной карьеры, исчезли. Мир, возникший после Холодной войны, переполнен «отморозками». Рэт хочет «завязать».
Другой киллер, Мигель Бэйн, амбициозный молодой человек - напротив желает стать первым в своем деле, и знает, как это сделать: уничтожить Рэта. Действие разворачивается стремительно и непредсказуемо, когда Сильвестр Сталлоне в роли Рэта и Антонио Бандерас в роли Бэйна защищают свою профессиональную честь наемных убийц.
Джулианна Мур играет хитрого хакера, затянутого в жестокую схватку киллерского дуэта.



Страна: США, Франция
Продолжительность: 2:12:44
Перевод: Профессиональный (полное дублирование) R5

Файл
Кодек: XviD
Качество: BDRip
Видео: 704x400, 23.976 fps, 1374 kbps
Звук: 48 kHz, AC3 Dolby Digital, 2/0 (L,R) ch, ~192 kbps
Общее
Полное имя : Naemnie.Ubiyci.1995.BDRip.Dub.avi
Формат : AVI
Формат/Информация : Audio Video Interleave
Размер файла : 1,46 Гбайт
Продолжительность : 2 ч. 12 м.
Общий поток : 1575 Кбит/сек
Программа кодирования : VirtualDubMod 1.5.10.2 (build 2542/release)
Библиотека кодирования : VirtualDubMod build 2542/release

Видео
Идентификатор : 0
Формат : MPEG-4 Visual
Профиль формата : Advanced Simple@L5
Параметр BVOP формата : 1
Параметр QPel формата : Нет
Параметр GMC формата : Без точки перехода
Параметр матрицы формата : Выборочная
Идентификатор кодека : XVID
Идентификатор кодека/Подсказка : XviD
Продолжительность : 2 ч. 12 м.
Битрейт : 1374 Кбит/сек
Ширина : 704 пикс.
Высота : 400 пикс.
Соотношение сторон : 16:9
Частота кадров : 23,976 кадр/сек
Цветовое пространство : YUV
Подвыборка цветности : 4:2:0
Битовая глубина : 8 бит
Тип развёртки : Прогрессивная
Метод сжатия : С потерями
Бит/(Пиксели*Кадры) : 0.203
Размер потока : 1,27 Гбайт (87%)
Библиотека кодирования : XviD 73

Аудио
Идентификатор : 1
Формат : AC-3
Формат/Информация : Audio Coding 3
Расширение режима : CM (complete main)
Идентификатор кодека : 2000
Продолжительность : 2 ч. 12 м.
Вид битрейта : Постоянный
Битрейт : 192 Кбит/сек
Канал(ы) : 2 канала(ов)
Расположение каналов : Front: L R
Частота : 48,0 КГц
Битовая глубина : 16 бит
Метод сжатия : С потерями
Размер потока : 182 Мбайт (12%)
Выравнивание : Разделение по промежуткам
Продолжительность промежутка : 42 мс. (1,00 видеокадр)
Время предзагрузки промежутка : 500 ms
pic pic pic
Для увеличения картинки щелкните мышкой по превью

Этот торрент недоступен для скачивания без регистрации, однако доступен по публичной magnet-ссылке (источники с публичных трекеров). Перед использованием ссылки прочтите, пожалуйста Пользовательское соглашение, а также как можно дольше оставайтесь на раздаче! Для того, чтобы скачать сам торрент-файл (который видит больше источников), а также для того, чтобы поблагодарить релизера, вам необходимо зарегистрироваться. Если регистрироваться лень - вы можете также попробовать скачать релиз по нашим партнерским ссылкам ниже.

[underverse.su].t28892.torrent
Трекер: Зарегистрирован   [ 03.07.2013 08:02 ]  

Статус: проверено (by Паукан at 03.07.2013 08:03)
Поблагодарили: 3 человека
Тип торрента: публичный - доступные источники с открытых трекеров: 
Размер: 1,46 GB (занимает 0,33 DVDR, для записи нужно 1 болванка DVDR/RW)
 
 
Похожие темы
Форум Тема Автор Торрент Отв. Посл. сооб.
Зарубежное кино [DVDRip, Low-Res HDRip, и т.д.] Наёмные убийцы / Contract killers (Мэтью Джон Пирсон / Mathew John Pearson) [2014 г., боевик, триллер, криминал, HDRip] VO (Barin101) + Original (Eng) 90ytr90
57 | 5

0 | 125

4

29.11.2016 16:32


Яндекс.Метрика powered by Sphinx


В Н И М А Н И Е
Сайт не распространяет и не хранит электронные версии произведений, а лишь бесплатно и без коммерческой выгоды (не требуя взамен платы,
SMS и т.д.) предоставляет доступ к создаваемому пользователями каталогу ссылок на торрент-файлы, которые содержат только списки хеш-сумм.
Убедительная просьба с жалобами обращаться напрямую к пользователю, разместившему торрент файл.

Вверх