Loading...
Error

Кодер / Cypher (Винченцо Натали) [2002 г., фантастика, триллер, детектив, BDRip] DVO + AVO + Original

Статистика раздачи
Размер:  2,31 GB   |    Зарегистрирован:  3 года 5 месяцев   |    Скачан:  40 раз

Полного источника не было: 4 месяца 11 дней

Сидов:  0  |  0 KB/s  ]   Личеров:  0  |  0 KB/s  ]

* - сиды/пиры с внешних источников

   
 
Автор Сообщение

Паукан Пол:Муж

02-Июл-2013 14:57

Кодер / Cypher


Название: Кодер
Оригинальное название: Cypher
Год выпуска: 2002
Жанр: Фантастика, триллер, детектив
Выпущено: США, Gaylord Films, Headspace, Miramax Films, Pandora Cinema
Режиссер: Винченцо Натали
В ролях: Джереми Нортэм, Люси Лью, Найджел Беннетт, Тимоти Веббер, Дэвид Хьюлетт, Кэри Матчетт, Кристина Николь, Джозеф Скорен, Стивен Браун, Арнольд Пиннок

О фильме: Морган Салливан, уставший от занудной жизни и нелюбимой жены, охотно соглашается заниматься шпионажем для могущественной корпорации «Диджикорп». Он получает новое имя и простое задание - с помощью секретного устройства передавать выступления конкурентов на конвенциях по всей стране. Несмотря на начавшиеся мигрени и странную боль в затылке, Морган наслаждается новой, тайной жизнью, но случайная встреча с загадочной Ритой вселяет в него страх и подозрения. По словам Риты, скучные собрания всего лишь ширма для зловещих операций «Диджикорпа», превращающего своих «шпионов» в послушных марионеток, утративших своё «я». Она делает ему укол и просит на следующей конвенции никак не реагировать на то, что он там увидит…

Качество: BDRip
Размер: 2.31 ГБ
Продолжительность: 01:35:39

Видео: XviD, 1891 Kбит/с, 720x400
Аудио 1: русский, 48 kHz, AC3, 6 ch, 448 kbps avg, [Профессиональный двухголосый, R5]
Аудио 2: русский, 48 kHz, AC3, 2 ch, 192 kbps avg, [Профессиональный двухголосый]
Аудио 3: русский, 48 kHz, AC3, 6 ch, 448 kbps avg, Юрий Живов [Авторский]

Внешние файлы
Аудио: английский, 48 kHz, AC3, 6 ch, 448 kbps avg, [Оригинал]
Субтитры: русские

Общее
Полное имя : E:VideoKoder.2002.XviD.BDRipKoder.2002.Original.eng.ac3
Формат : AC-3
Формат/Информация : Audio Coding 3
Размер файла : 307 Мбайт
Продолжительность : 1 ч. 35 м.
Режим общего битрейта : Постоянный
Общий поток : 448 Кбит/сек

Аудио
Формат : AC-3
Формат/Информация : Audio Coding 3
Расширение режима : CM (complete main)
Параметр Endianness формата : Big
Продолжительность : 1 ч. 35 м.
Вид битрейта : Постоянный
Битрейт : 448 Кбит/сек
Каналы : 6 каналов
Расположение каналов : Front: L C R, Side: L R, LFE
Частота : 48,0 КГц
Битовая глубина : 16 бит
Метод сжатия : С потерями
Размер потока : 307 Мбайт (100%)

Общее
Полное имя : E:VideoKoder.2002.XviD.BDRipKoder.2002.rus.srt
Размер файла : 79,2 Кбайт

Общее
Полное имя : E:VideoKoder.2002.XviD.BDRipKoder.2002.XviD.BDRip.avi
Формат : AVI
Формат/Информация : Audio Video Interleave
Профиль формата : OpenDML
Размер файла : 2,01 Гбайт
Продолжительность : 1 ч. 35 м.
Общий поток : 3010 Кбит/сек
Программа кодирования : VirtualDubMod 1.5.10.2 (build 2540/release)
Библиотека кодирования : VirtualDubMod build 2540/release

Видео
Идентификатор : 0
Формат : MPEG-4 Visual
Профиль формата : Advanced Simple@L5
Параметр BVOP формата : 1
Параметр QPel формата : Нет
Параметр GMC формата : Без точки перехода
Параметр матрицы формата : Default (H.263)
Режим смешивания : Сжатый битовый поток
Идентификатор кодека : XVID
Идентификатор кодека/Подсказка : XviD
Продолжительность : 1 ч. 35 м.
Битрейт : 1891 Кбит/сек
Ширина : 720 пикселей
Высота : 400 пикселей
Соотношение сторон : 16:9
Частота кадров : 29,970 кадров/сек
Цветовое пространство : YUV
Субдискретизация насыщенности : 4:2:0
Битовая глубина : 8 бит
Тип развёртки : Прогрессивная
Метод сжатия : С потерями
Бит/(Пиксели*Кадры) : 0.219
Размер потока : 1,26 Гбайт (63%)
Библиотека кодирования : XviD 1.2.1 (UTC 2008-12-04)

Аудио #1
Идентификатор : 1
Формат : AC-3
Формат/Информация : Audio Coding 3
Расширение режима : CM (complete main)
Параметр Endianness формата : Big
Идентификатор кодека : 2000
Продолжительность : 1 ч. 35 м.
Вид битрейта : Постоянный
Битрейт : 448 Кбит/сек
Каналы : 6 каналов
Расположение каналов : Front: L C R, Side: L R, LFE
Частота : 48,0 КГц
Битовая глубина : 16 бит
Метод сжатия : С потерями
Размер потока : 307 Мбайт (15%)
Выравнивание : Разделение по промежуткам
Продолжительность промежутка : 33 мс. (1,00 видеокадр)
Время предзагрузки промежутка : 500 мс.

Аудио #2
Идентификатор : 2
Формат : AC-3
Формат/Информация : Audio Coding 3
Расширение режима : CM (complete main)
Параметр Endianness формата : Big
Идентификатор кодека : 2000
Продолжительность : 1 ч. 35 м.
Вид битрейта : Постоянный
Битрейт : 192 Кбит/сек
Каналы : 2 канала
Расположение каналов : Front: L R
Частота : 48,0 КГц
Битовая глубина : 16 бит
Метод сжатия : С потерями
Размер потока : 131 Мбайт (6%)
Выравнивание : Разделение по промежуткам
Продолжительность промежутка : 33 мс. (1,00 видеокадр)
Время предзагрузки промежутка : 500 мс.

Аудио #3
Идентификатор : 3
Формат : AC-3
Формат/Информация : Audio Coding 3
Расширение режима : CM (complete main)
Параметр Endianness формата : Big
Идентификатор кодека : 2000
Продолжительность : 1 ч. 35 м.
Вид битрейта : Постоянный
Битрейт : 448 Кбит/сек
Каналы : 6 каналов
Расположение каналов : Front: L C R, Side: L R, LFE
Частота : 48,0 КГц
Битовая глубина : 16 бит
Метод сжатия : С потерями
Размер потока : 307 Мбайт (15%)
Выравнивание : Разделение по промежуткам
Продолжительность промежутка : 33 мс. (1,00 видеокадр)
Время предзагрузки промежутка : 500 мс.
pic pic pic
Для увеличения картинки щелкните мышкой по превью

Этот торрент недоступен для скачивания без регистрации, однако доступен по публичной magnet-ссылке (источники с публичных трекеров). Перед использованием ссылки прочтите, пожалуйста Пользовательское соглашение, а также как можно дольше оставайтесь на раздаче! Для того, чтобы скачать сам торрент-файл (который видит больше источников), а также для того, чтобы поблагодарить релизера, вам необходимо зарегистрироваться. Если регистрироваться лень - вы можете также попробовать скачать релиз по нашим партнерским ссылкам ниже.

[underverse.su].t28881.torrent
Трекер: Зарегистрирован   [ 02.07.2013 14:57 ]  

Статус: проверено (by Паукан at 02.07.2013 14:57)
Поблагодарили: 2 человека
Тип торрента: публичный - доступные источники с открытых трекеров: 
Размер: 2,31 GB (занимает 0,53 DVDR, для записи нужно 1 болванка DVDR/RW)
 
 

Яндекс.Метрика powered by Sphinx


В Н И М А Н И Е
Сайт не распространяет и не хранит электронные версии произведений, а лишь бесплатно и без коммерческой выгоды (не требуя взамен платы,
SMS и т.д.) предоставляет доступ к создаваемому пользователями каталогу ссылок на торрент-файлы, которые содержат только списки хеш-сумм.
Убедительная просьба с жалобами обращаться напрямую к пользователю, разместившему торрент файл.

Вверх