Loading...
Error

«Кодекс чести 6» / Серии: 1-24 [24] (Мурад Алиев, Олег Штром) [2013 г., детектив, криминал, SATRip]

Статистика раздачи
Размер:  12,9 GB   |    Зарегистрирован:  4 года 2 месяца   |    Скачан:  11 раз

Полного источника не было: 2 года 7 месяцев

Сидов:  0  |  0 KB/s  ]   Личеров:  0  |  0 KB/s  ]

* - сиды/пиры с внешних источников

   
 
Автор Сообщение

nemos Пол:Муж

01-Июл-2013 13:57

Кодекс чести 6


Год выпуска: 2013
Жанр: детектив, криминал
Страна: Россия
Режиссер: Мурад Алиев, Олег Штром
В ролях: Игорь Лагутин, Геннадий Митник, Андрей Савостьянов, Георгий Николаенко, Денис Сердюков, Максим Фролов, Руслан Спояло, Егор Федотов, Владимир Кадацкий, Сергей Холмогоров, Михаил Пярн, Рашид Айтуганов, Алексей Спирин, Семен Штейнберг, Иван Титов, Владимир Тебенко, Наталья Дедейко, Сергей Фролов (IV), Максим Дромашко, Георгий Фетисов, Евгений Рябов, Владимир Воробьёв (II), Игорь Бондаренко (III), Александр Сергеев (IV), Олег Карин, Михаил Мелин, Павел Чернявский, Виктор Хатеновский, Алексей Белоус, Валерий Кудашкин, Виктор Конухин, Владимир Жарков, Ольга Моховая, Александр Шелудько, Тимур Пантелеев, Виктор Балабанов, Юрий Маслак
«Кодекс чести» десять лет с успехом идет в эфире НТВ. Сериал, снятый по книге А. Таманцева «Солдаты удачи», пришелся по душе телезрителям и довольно быстро завоевал популярность. История начинается в Чечне, когда команда спецназовцев во главе с капитаном Пастуховым оказывается вовлеченной в преступную игру своего начальства. Ребята отказываются выполнять порочащий честь офицера боевой приказ, за что расплачиваются увольнением из армии. На гражданке молодые офицеры пытаются устроить свою жизнь. Через некоторое время генерал Голубев, бывший в Чечне начальником контрразведки, предлагает группе Пастухова поработать в секретной службе — Управлении по планированию специальных мероприятий (УПСМ). Герои блестяще справляются с заданиями, рискуя жизнью и с честью выходя из трудных ситуаций.
Качество видео: SatRip

Продолжительность: 00:45:11 серия
Формат: AVI
Видео: XviD, 720x400, 1501 kbps
Аудио: русский, MP3 2.0, 192 kbps

Код:

E:\С underverse-3 Фильмы\Kodeks.chesti-6.2013.SATRip.Files-x\Kodeks.chesti-6.24seriya.2013.SATRip.Files-x.avi
   General
      Complete name : E:\С underverse-3 Фильмы\Kodeks.chesti-6.2013.SATRip.Files-x\Kodeks.chesti-6.24.seriya.2013.SATRip.Files-x.avi
      Format : AVI
      Format/Info : Audio Video Interleave
      File size : 550 MiB
      Duration : 45mn 11s
      Overall bit rate : 1 703 Kbps
      Writing application : VirtualDubMod 1.5.10.3 | www.virtualdub-fr.org || (build 2550/release)
      Writing library : VirtualDubMod build 2550/release
   Video #0
      ID : 0
      Format : MPEG-4 Visual
      Format profile : Advanced Simple@L5
      Format settings, BVOP : 1
      Format settings, QPel : No
      Format settings, GMC : No warppoints
      Format settings, Matrix : Default (H.263)
      Codec ID : XVID
      Codec ID/Hint : XviD
      Duration : 45mn 11s
      Bit rate : 1 501 Kbps
      Width : 720 pixels
      Height : 400 pixels
      Display aspect ratio : 16:9
      Frame rate : 25.000 fps
      Color space : YUV
      Chroma subsampling : 4:2:0
      Bit depth : 8 bits
      Scan type : Progressive
      Compression mode : Lossy
      Bits/(Pixel*Frame) : 0.208
      Stream size : 485 MiB (88%)
      Writing library : XviD 1.2.1 (UTC 2008-12-04)
   Audio #1
      ID : 1
      Format : MPEG Audio
      Format version : Version 1
      Format profile : Layer 3
      Codec ID : 55
      Codec ID/Hint : MP3
      Duration : 45mn 11s
      Bit rate mode : Constant
      Bit rate : 192 Kbps
      Channel(s) : 2 channels
      Sampling rate : 48.0 KHz
      Compression mode : Lossy
      Stream size : 62.1 MiB (11%)
      Alignment : Aligned on interleaves
      Interleave, duration : 40 ms (1.00 video frame)
      Interleave, preload duration : 504 ms
      Writing library : LAME3.98r
      Encoding settings : -m s -V 4 -q 2 -lowpass 18.6 -b 192
Семпл: http://multi-up.com/880455

Релиз группы:

picpicpicpicpicpicpicpicpic
Для увеличения картинки щелкните мышкой по превью
Сериал который был выложен и зарегистрирован более двух месяцев назад буду раздавать с 23.00ч до 06.00ч утра ( вина в этом немоя, а пользователей которые неподдерживают раздачу)

Этот торрент недоступен для скачивания без регистрации, однако доступен по публичной magnet-ссылке (источники с публичных трекеров). Перед использованием ссылки прочтите, пожалуйста Пользовательское соглашение, а также как можно дольше оставайтесь на раздаче! Для того, чтобы скачать сам торрент-файл (который видит больше источников), а также для того, чтобы поблагодарить релизера, вам необходимо зарегистрироваться. Если регистрироваться лень - вы можете также попробовать скачать релиз по нашим партнерским ссылкам ниже.

[underverse.su].t29017.torrent
Трекер: Зарегистрирован   [ 07.07.2013 16:26 ]  

Статус: проверено (by Чертёнок at 07.07.2013 16:49)
Поблагодарили: 2 человека
Тип торрента: публичный - доступные источники с открытых трекеров: 
Размер: 12,9 GB (занимает 2,95 DVDR, для записи нужно 3 болванки DVDR/RW)
 
 
Похожие темы
Форум Тема Автор Торрент Отв. Посл. сооб.
xUSSR сериалы «Кодекс чести 7» / Серии: 1-32 [32] (Георгий Николаенко) [2014 г., боевик, SatRip] nemos
1 | 3

1 | 3878

9

05.12.2014 17:36



Последний раз редактировалось: nemos (06.11.2014 09:46), всего редактировалось 7 раз(а)

nemos Пол:Муж

02-Июл-2013 02:37

Торрент обновлен, добавлены серии : 23-24

Яндекс.Метрика powered by Sphinx


В Н И М А Н И Е
Сайт не распространяет и не хранит электронные версии произведений, а лишь бесплатно и без коммерческой выгоды (не требуя взамен платы,
SMS и т.д.) предоставляет доступ к создаваемому пользователями каталогу ссылок на торрент-файлы, которые содержат только списки хеш-сумм.
Убедительная просьба с жалобами обращаться напрямую к пользователю, разместившему торрент файл.

Вверх