Loading...
Error

СашаТаня | Серии 01-36 из 40 (Михаил Старчак) [2013 г., Комедийный телесериал, SATRip] от vitek

Статистика раздачи
Размер:  9,66 GB   |    Зарегистрирован:  3 года 4 месяца   |    Скачан:  9 раз

Полного источника не было: 1 год

Сидов:  0  |  0 KB/s  ]   Личеров:  0  |  0 KB/s  ]

* - сиды/пиры с внешних источников

   
 
Автор Сообщение

Печаль'ka Пол:Жен

01-Июл-2013 13:32

СашаТаня


Год выпуска: 2013
Жанр: Комедийный телесериал
Выпущено: Россия, "Comedy Club Production"
Режиссер: Михаил Старчак
В ролях: Андрей Гайдулян, Валентина Рубцова, Алексей Климушкин, Елена Бирюкова, Татьяна Орлова, Андрей Лебедев, Ксения Хаирова, Олег Новиков, Сергей Рудзевич

О фильме: Кто кричит по ночам и спит днем? Зачем молодому отцу качать пустую колыбель? Что можно хранить в холодильнике без угрозы для мужского достоинства? На эти и многие другие вопросы ответит «САШАТАНЯ»– новый сериал ТНТ о семейной жизни молодежи. «САШАТАНЯ»– история о жизни молодой семьи. Герои старого «Универа» Саша и Таня окончили университет. Теперь у них совсем другие заботы. Принципиальный Саша наотрез отказывается от финансовой помощи отца – рублевского олигарха Сильвестра Андреевича. Сашина реальность – квартира в многоэтажке на окраине города, работа на побегушках в офисе, жена-домохозяйка, плачущий ребенок и жизнь от зарплаты до зарплаты.

Качество: SATRip
Видео: DivX, ~ 1651 Кбит/с, 720x400
Аудио: MP3, 2 ch, 128 Кбит/с
Продолжительность: ~ 00:23:28
Язык: Русский

Код:

General
Complete name                            : F:\SashaTanya.(1.seriya).2013.XviD.SATRip.ANDROZZZ.avi
Format                                   : AVI
Format/Info                              : Audio Video Interleave
File size                                : 300 MiB
Duration                                 : 23mn 28s
Overall bit rate                         : 1 789 Kbps
Writing library                          : VirtualDub build 34807/release

Video
ID                                       : 0
Format                                   : MPEG-4 Visual
Format settings, BVOP                    : 1
Format settings, QPel                    : No
Format settings, GMC                     : No warppoints
Format settings, Matrix                  : Default (H.263)
Muxing mode                              : Packed bitstream
Codec ID                                 : DX50
Codec ID/Hint                            : DivX 5
Duration                                 : 23mn 28s
Bit rate                                 : 1 651 Kbps
Width                                    : 720 pixels
Height                                   : 400 pixels
Display aspect ratio                     : 16:9
Frame rate                               : 25.000 fps
Color space                              : YUV
Chroma subsampling                       : 4:2:0
Bit depth                                : 8 bits
Scan type                                : Progressive
Compression mode                         : Lossy
Bits/(Pixel*Frame)                       : 0.229
Stream size                              : 277 MiB (92%)
Writing library                          : DivX 6.8.5 (UTC 2009-08-20)

Audio
ID                                       : 1
Format                                   : MPEG Audio
Format version                           : Version 1
Format profile                           : Layer 3
Mode                                     : Joint stereo
Mode extension                           : MS Stereo
Codec ID                                 : 55
Codec ID/Hint                            : MP3
Duration                                 : 23mn 28s
Bit rate mode                            : Constant
Bit rate                                 : 128 Kbps
Channel(s)                               : 2 channels
Sampling rate                            : 44.1 KHz
Compression mode                         : Lossy
Stream size                              : 21.5 MiB (7%)
Alignment                                : Split accross interleaves
Interleave, duration                     : 40 ms (1.00 video frame)
Interleave, preload duration             : 500 ms
pic pic pic pic
Для увеличения картинки щелкните мышкой по превью


UPD 07.08.13: добавлены серии 29-36

Этот торрент недоступен для скачивания без регистрации, однако доступен по публичной magnet-ссылке (источники с публичных трекеров). Перед использованием ссылки прочтите, пожалуйста Пользовательское соглашение, а также как можно дольше оставайтесь на раздаче! Для того, чтобы скачать сам торрент-файл (который видит больше источников), а также для того, чтобы поблагодарить релизера, вам необходимо зарегистрироваться. Если регистрироваться лень - вы можете также попробовать скачать релиз по нашим партнерским ссылкам ниже.

[underverse.su].t28880.torrent
Трекер: Зарегистрирован   [ 07.08.2013 13:38 ]  

Статус: проверено (by Печаль'ka at 07.08.2013 13:38)
Поблагодарили: пока никто не поблагодарил...
Тип торрента: публичный - доступные источники с открытых трекеров: 
Размер: 9,66 GB (занимает 2,21 DVDR, для записи нужно 3 болванки DVDR/RW)
 
 

Яндекс.Метрика powered by Sphinx


В Н И М А Н И Е
Сайт не распространяет и не хранит электронные версии произведений, а лишь бесплатно и без коммерческой выгоды (не требуя взамен платы,
SMS и т.д.) предоставляет доступ к создаваемому пользователями каталогу ссылок на торрент-файлы, которые содержат только списки хеш-сумм.
Убедительная просьба с жалобами обращаться напрямую к пользователю, разместившему торрент файл.

Вверх