Loading...
Error

Миллион для чайников / The Brass Teapot (Рамаа Мосли) [2012 г., Фэнтези, триллер, комедия, BDRip-AVC] DUB (Чистый звук) от potroks

Статистика раздачи
Размер:  1,95 GB   |    Зарегистрирован:  3 года 5 месяцев   |    Скачан:  27 раз

Полного источника не было: 12 часов

Сидов:  0  |  0 KB/s  ]   Личеров:  0  |  0 KB/s  ]

* - сиды/пиры с внешних источников

   
 
Автор Сообщение

Печаль'ka Пол:Жен

01-Июл-2013 10:39

Миллион для чайников / The Brass Teapot


Год выпуска: 2012
Производство: США / Atlantic Pictures (II), Laundry Films, Northern Lights Films, Union Entertainment Group (II)
Жанр: Фэнтези, триллер, комедия
Продолжительность: 01:41:29
Перевод: Профессиональный (многоголосый, закадровый) чистый звук
Субтитры: Английские, русские
Режиссер: Рамаа Мосли

В ролях: Джуно Темпл, Майкл Ангарано, Алексис Бледел, Алиа Шокат, Мэтт Уолш, Люсиль Уолтерс, Томас Миддлдитч, Билли Магнуссен, Бобби Мойнихэн мл., Бен Раппапорт

О фильме: Признайтесь, каждому бы хотелось иметь волшебный чайник под кроватью, который выдает по первому требованию наличные?! Но кто знает, через что должен пройти миллионер? Богатые тоже плачут, ведь чайник производит деньги, как только кто-то из окружающих чувствует боль. Как далеко готовы зайти ради денег молодожены Джон и Эллис в погоне за богатством?


Качество: BDRip-AVC [The.Brass.Teapot.2012.1080p.Remux.AVC.FLAC.5.1-SpaceHD]
Формат: MKV
Видео: H.264, 1040x442 (2.35:1), 23,976 кадр/сек, 2186 Кбит/сек, 0.198 bit/pixel
Аудио#1: 48 kHz, MPEG Layer 3, 2 ch, ~128.00 kbps avg | RUS
Аудио#2: 48 kHz, AC3 Dolby Digital, 3/2 (L,C,R,l,r) + LFE ch, 448.00 kbps | ENG

Общее
Уникальный идентификатор : 251514767150347517625998871714528294834 (0xBD37FB6E4034951FBCF42B2167E8F7B2)
Полное имя : Million.dlja.Chajnikov.2012.BDRip.x264.potroks.mkv
Формат : Matroska
Версия формата : Version 4 / Version 2
Размер файла : 1,95 Гбайт
Продолжительность : 1 ч. 45 м.
Общий поток : 2650 Кбит/сек
Название фильма : -=POTROKS=-
Дата кодирования : UTC 2013-06-30 17:30:49
Программа кодирования : mkvmerge v5.9.0 ('On The Loose') built on Dec 15 2012 16:39:58
Библиотека кодирования : libebml v1.3.0 + libmatroska v1.4.0

Видео
Идентификатор : 1
Формат : AVC
Формат/Информация : Advanced Video Codec
Профиль формата : High@L4.1
Параметр CABAC формата : Да
Параметр ReFrames формата : 10 кадров
Идентификатор кодека : V_MPEG4/ISO/AVC
Продолжительность : 1 ч. 45 м.
Битрейт : 2021 Кбит/сек
Номинальный битрейт : 2186 Кбит/сек
Ширина : 1040 пикселей
Высота : 442 пикселя
Соотношение сторон : 2,35:1
Режим частоты кадров : Постоянный
Частота кадров : 23,976 кадра/сек
Цветовое пространство : YUV
Субдискретизация насыщенности : 4:2:0
Битовая глубина : 8 бит
Тип развёртки : Прогрессивная
Бит/(Пиксели*Кадры) : 0.183
Размер потока : 1,48 Гбайт (76%)
Заголовок : The Brass Teapot
Библиотека кодирования : x264 core 125 r2208 d9d2288
Настройки программы : cabac=1 / ref=10 / deblock=1:-2:-1 / analyse=0x3:0x133 / me=umh / subme=11 / psy=1 / psy_rd=1.09:0.05 / mixed_ref=1 / me_range=32 / chroma_me=1 / trellis=2 / 8x8dct=1 / cqm=0 / deadzone=21,11 / fast_pskip=0 / chroma_qp_offset=-3 / threads=9 / lookahead_threads=1 / sliced_threads=0 / nr=0 / decimate=1 / interlaced=0 / bluray_compat=0 / constrained_intra=0 / bframes=11 / b_pyramid=2 / b_adapt=2 / b_bias=0 / direct=3 / weightb=1 / open_gop=0 / weightp=2 / keyint=240 / keyint_min=23 / scenecut=40 / intra_refresh=0 / rc_lookahead=150 / rc=2pass / mbtree=1 / bitrate=2186 / ratetol=1.0 / qcomp=0.70 / qpmin=0 / qpmax=69 / qpstep=4 / cplxblur=20.0 / qblur=0.5 / vbv_maxrate=20000 / vbv_bufsize=20000 / nal_hrd=none / ip_ratio=1.35 / aq=2:0.70
Язык : English
Default : Да
Forced : Нет

Аудио #1
Идентификатор : 2
Формат : MPEG Audio
Версия формата : Version 1
Профиль формата : Layer 3
Режим : Joint stereo
Расширение режима : MS Stereo
Идентификатор кодека : A_MPEG/L3
Идентификатор кодека/Подсказка : MP3
Продолжительность : 1 ч. 45 м.
Вид битрейта : Постоянный
Битрейт : 128 Кбит/сек
Каналы : 2 канала
Частота : 48,0 КГц
Метод сжатия : С потерями
Размер потока : 96,3 Мбайт (5%)
Заголовок : чистый звук
Язык : Russian
Default : Да
Forced : Да

Аудио #2
Идентификатор : 3
Формат : AC-3
Формат/Информация : Audio Coding 3
Расширение режима : CM (complete main)
Параметр Endianness формата : Big
Идентификатор кодека : A_AC3
Продолжительность : 1 ч. 45 м.
Вид битрейта : Постоянный
Битрейт : 448 Кбит/сек
Каналы : 6 каналов
Расположение каналов : Front: L C R, Side: L R, LFE
Частота : 48,0 КГц
Битовая глубина : 16 бит
Метод сжатия : С потерями
Размер потока : 337 Мбайт (17%)
Заголовок : Original | DD 5.1 @ 448 kbps
Язык : English
Default : Нет
Forced : Нет

Текст #1
Идентификатор : 4
Формат : UTF-8
Идентификатор кодека : S_TEXT/UTF8
Идентификатор кодека/Информация : UTF-8 Plain Text
Язык : English
Default : Нет
Forced : Нет

Текст #2
Идентификатор : 5
Формат : UTF-8
Идентификатор кодека : S_TEXT/UTF8
Идентификатор кодека/Информация : UTF-8 Plain Text
Язык : Russian
Default : Нет
Forced : Нет

Этот торрент недоступен для скачивания без регистрации, однако доступен по публичной magnet-ссылке (источники с публичных трекеров). Перед использованием ссылки прочтите, пожалуйста Пользовательское соглашение, а также как можно дольше оставайтесь на раздаче! Для того, чтобы скачать сам торрент-файл (который видит больше источников), а также для того, чтобы поблагодарить релизера, вам необходимо зарегистрироваться. Если регистрироваться лень - вы можете также попробовать скачать релиз по нашим партнерским ссылкам ниже.

[underverse.su].t28842.torrent
Трекер: Зарегистрирован   [ 01.07.2013 10:39 ]  

Статус: проверено (by Печаль'ka at 01.07.2013 10:39)
Поблагодарили: 2 человека
Тип торрента: публичный - доступные источники с открытых трекеров: 
Размер: 1,95 GB (занимает 0,44 DVDR, для записи нужно 1 болванка DVDR/RW)
 
 
Похожие темы
Форум Тема Автор Торрент Отв. Посл. сооб.
Зарубежное кино [DVDRip, Low-Res HDRip, и т.д.] Миллион для чайников / The Brass Teapot (Рамаа Мосли / Ramaa Mosley) [2012 г., фэнтези, комедия, WEBDLRip] VO (Хихидок) Gaarochi
1 | 0

0 | 11127

46

10.05.2013 17:55

Зарубежное кино [DVDRip, Low-Res HDRip, и т.д.] Миллион для чайников / The Brass Teapot (Рамаа Мосли / Ramaa Mosley) [2012 г., фэнтези, триллер, комедия, BDRip] MVO 90ytr90
75 | 1

0 | 956

5

24.07.2013 17:40

Зарубежное кино [DVDRip, Low-Res HDRip, и т.д.] Миллион для чайников / The Brass Teapot (Рамаа Мосли / Ramaa Mosley) [2012 г., фэнтези, триллер, комедия, BDRip] MVO + Original 90ytr90
13 | 0

0 | 933

3

24.07.2013 17:47

Зарубежное кино [DVDRip, Low-Res HDRip, и т.д.] Миллион для чайников / The Brass Teapot (Рамаа Мосли / Ramaa Mosley) [2012 г., фэнтези, триллер, комедия, BDRip-AVC] MVO 90ytr90
22 | 1

0 | 1675

73

24.07.2013 17:55

Зарубежное кино [DVDRip, Low-Res HDRip, и т.д.] Миллион для чайников / The Brass Teapot (Рамаа Мосли / Ramaa Mosley) [2012 г., фэнтези, триллер, комедия, BDRip-AVC] MVO + Original 90ytr90
1 | 0

0 | 986

4

24.07.2013 18:04

Зарубежное кино [HDDVDRip / BDRip / WEB-DL / HDTV 1080/720р] Миллион для чайников / The Brass Teapot (Рамаа Мосли / Ramaa Mosley) [2012 г., фэнтези, триллер, комедия, BDRip 720p] MVO + Original 90ytr90
3 | 0

0 | 393

3

24.07.2013 18:13

Зарубежное кино [HDDVDRip / BDRip / WEB-DL / HDTV 1080/720р] Миллион для чайников / The Brass Teapot (Рамаа Мосли / Ramaa Mosley) [2012 г., фэнтези, триллер, комедия, BDRip 1080p] MVO + Original 90ytr90
5 | 0

0 | 535

2

24.07.2013 18:22

Hranitel Пол:Муж

22-Авг-2013 19:09

Большое спасибо автору :Rose: за интересный фильм! :good: Поддержим раздачу, ждём новых релизов!

Яндекс.Метрика powered by Sphinx


В Н И М А Н И Е
Сайт не распространяет и не хранит электронные версии произведений, а лишь бесплатно и без коммерческой выгоды (не требуя взамен платы,
SMS и т.д.) предоставляет доступ к создаваемому пользователями каталогу ссылок на торрент-файлы, которые содержат только списки хеш-сумм.
Убедительная просьба с жалобами обращаться напрямую к пользователю, разместившему торрент файл.

Вверх