Loading...
Error

Повелители Салема / The Lords of Salem ( Роб Зомби) [2012 г., ужасы, триллер, DVDRip] MVO [Лицензия]

Статистика раздачи
Размер:  1,46 GB   |    Зарегистрирован:  3 года 5 месяцев   |    Скачан:  27 раз

Полного источника не было: 3 года 1 месяц

Сидов:  0  |  0 KB/s  ]   Личеров:  0  |  0 KB/s  ]

* - сиды/пиры с внешних источников

   
 
Автор Сообщение

Су-34 Пол:Муж

01-Июл-2013 09:46

Повелители Салема / The Lords of Salem


Год выпуска: 2012
Жанр: ужасы, триллер
Страна: США , Великобритания , Канада
Режиссер: Роб Зомби
В ролях: Шери Мун Зомби, Брюс Дэвисон, Джеффри Дэниэл Филлипс, Джуди Гисон, Мег Фостер, Патриция Куинн, Кен Фори, Ди Уоллес-Стоун, Мария Кончита Алонсо, Ричард Фэнси
Сюжет фильма:
Блондинка Хейди — крутая диск-жокейка провинциальной радиостанции, вместе с двумя друзьями они составляют команду Big H Radio. Хейди получает странную посылку — деревянную коробку с виниловой пластинкой, «подарок от Властелинов». Она решает, что это неизвестная ей прежде рок-группа таким образом обращает на себя внимание. Но когда пластинка начинает играть, Хейди испытывает шок, связанный с подавленными воспоминаниями. Однако никто больше ничего подобного не переживает и песня, названная «Властелины Салема», становится хитом. Позднее приходит еще одна посылка от Властелинов, содержащая плакаты, аудио и три бесплатных пригласительных билета на некую вечеринку в Салеме. Хейди и ее друзьям предстоит узнать, что это будет вовсе не рок-концерт: самые настоящие властелины ведьмовского города Салем вернулись и жаждут крови.
  • Мировая премьера: 10 сентября 2012


Качество видео: DVDRip

Продолжительность: 01:36:39
Формат: AVI
Видео: XviD, 720x320, ~1703 kbps
Аудио: русский, многоголосый закадровый [профессиональный] [Лицензия], AC3 (mono), ~448 kbps

Код:

General
      Complete name : D:\Torrents\Povelitel.salema.2012.P.DVDRip.UG.avi
      Format : AVI
      Format/Info : Audio Video Interleave
      File size : 1.46 GiB
      Duration : 1h 36mn
      Overall bit rate : 2 161 Kbps
      Writing application : VirtualDubMod 1.5.10.3 | www.virtualdub-fr.org || (build 2550/release)
      Writing library : VirtualDubMod build 2550/release
   Video #0
      ID : 0
      Format : MPEG-4 Visual
      Format profile : Advanced Simple@L5
      Format settings, BVOP : 2
      Format settings, QPel : No
      Format settings, GMC : No warppoints
      Format settings, Matrix : Custom
      Codec ID : XVID
      Codec ID/Hint : XviD
      Duration : 1h 36mn
      Bit rate : 1 704 Kbps
      Width : 720 pixels
      Height : 320 pixels
      Display aspect ratio : 2.25:1
      Frame rate : 25.000 fps
      Color space : YUV
      Chroma subsampling : 4:2:0
      Bit depth : 8 bits
      Scan type : Progressive
      Compression mode : Lossy
      Bits/(Pixel*Frame) : 0.296
      Stream size : 1.15 GiB (79%)
      Writing library : XviD 64
   Audio #1
      ID : 1
      Format : AC-3
      Format/Info : Audio Coding 3
      Mode extension : CM (complete main)
      Format settings, Endianness : Big
      Codec ID : 2000
      Duration : 1h 36mn
      Bit rate mode : Constant
      Bit rate : 448 Kbps
      Channel(s) : 6 channels
      Channel positions : Front: L C R, Side: L R, LFE
      Sampling rate : 48.0 KHz
      Bit depth : 16 bits
      Compression mode : Lossy
      Stream size : 310 MiB (21%)
      Alignment : Split accross interleaves
      Interleave, duration : 40 ms (1.00 video frame)
      Interleave, preload duration : 500 ms

Семпл: http://multi-up.com/880199
Релиз группы:

picpicpicpic
Для увеличения картинки щелкните мышкой по превью

Этот торрент недоступен для скачивания без регистрации, однако доступен по публичной magnet-ссылке (источники с публичных трекеров). Перед использованием ссылки прочтите, пожалуйста Пользовательское соглашение, а также как можно дольше оставайтесь на раздаче! Для того, чтобы скачать сам торрент-файл (который видит больше источников), а также для того, чтобы поблагодарить релизера, вам необходимо зарегистрироваться. Если регистрироваться лень - вы можете также попробовать скачать релиз по нашим партнерским ссылкам ниже.

[underverse.su].t28840.torrent
Трекер: Зарегистрирован   [ 01.07.2013 09:50 ]  

Статус: проверено (by Чертёнок at 01.07.2013 10:21)
Поблагодарили: 1 человек
Тип торрента: публичный - доступные источники с открытых трекеров: 
Размер: 1,46 GB (занимает 0,33 DVDR, для записи нужно 1 болванка DVDR/RW)
 
 
Похожие темы
Форум Тема Автор Торрент Отв. Посл. сооб.
Зарубежное кино [DVDRip, Low-Res HDRip, и т.д.] Повелители Салема / The Lords of Salem (Роб Зомби) [2012 г., ужасы, триллер, BDRip-AVC] MVO [Лицензия] Чертёнок
0 | 0

0 | 1199

14

24.09.2013 15:29

Зарубежное кино [DVDRip, Low-Res HDRip, и т.д.] Повелители Салема / The Lords of Salem (Роб Зомби) [2012 г., ужасы, триллер, BDRip] MVO + Original 90ytr90
7 | 0

1 | 1696

5

02.11.2013 14:05

T Наше кино [DVDRip, Low-Res HDRip, и т.д.] Повелители снов (Ирина Багрова) [2016 г., комедия, фэнтези, WEB-DLRip] makkol
0 | 0

0 | 258

16

08.09.2016 10:17

Наше кино [HDDVDRip / BDRip / WEB-DL / HDTV 1080/720р] Повелители снов (Ирина Багрова) [2016 г., комедия, фэнтези, WEB-DL 720p] 90ytr90
44 | 2

0 | 377

13

09.09.2016 07:32

T Наше кино [HDDVDRip / BDRip / WEB-DL / HDTV 1080/720р] Повелители снов (Ирина Багрова) [2016 г., комедия, фэнтези, WEB-DL 1080p] makkol
84 | 1

0 | 226

12

08.09.2016 10:23

Popular feature films Повелители Салема / The Lords of Salem (Роб Зомби / Rob Zombie) [2012 г., ужасы, триллер, драма, DVDRip] Sub (Rus) 90ytr90
0 | 0

1 | 12609

22

29.11.2013 13:58


Яндекс.Метрика powered by Sphinx


В Н И М А Н И Е
Сайт не распространяет и не хранит электронные версии произведений, а лишь бесплатно и без коммерческой выгоды (не требуя взамен платы,
SMS и т.д.) предоставляет доступ к создаваемому пользователями каталогу ссылок на торрент-файлы, которые содержат только списки хеш-сумм.
Убедительная просьба с жалобами обращаться напрямую к пользователю, разместившему торрент файл.

Вверх