Loading...
Error

В поисках героя - Евгений Урбанский [2007 г., документальный, биография, TVRip]

Статистика раздачи
Размер:  440 MB   |    Зарегистрирован:  3 года 5 месяцев   |    Скачан:  4 раза

Полного источника не было: 2 года 9 месяцев

Сидов:  0  |  0 KB/s  ]   Личеров:  0  |  0 KB/s  ]

* - сиды/пиры с внешних источников

   
 
Автор Сообщение

матроскин Пол:Муж

29-Июн-2013 17:10

В поисках героя - Евгений Урбанский


Год выпуска: 2007
Жанр: документальный, биография
Страна: Россия
Режиссер: Юрий Поскакухин
Выпущено: Телеканал ТВЦ-"Плазма-вижн"
Сюжет фильма:
К 75-ти летию со дня рождения Евгения Урбанского. Актер Евгений Урбанский разбился в автокатастрофе в 1965 году в Кызыл-Куме на съемках фильма "Директор" в возрасте 33 лет. От актера нам осталось всего восемь кинолент. Фильм не только рассказывает об основных эпизодах личной и творческой биографии Урбанского. Вместе с участниками телепрограммы авторы пытаются разобраться, насколько подобная личность востребована в нашем современном кинематографе. В передаче использованы фрагменты из фильмов с участием актера, редкие кадры хроники со съемочных площадок, записи из частных архивов, а также фотографии, предоставленные семьей Урбанского, его друзьями, Драматическим театром им.Станиславского, в котором актер проработал несколько лет.
Качество видео: TVRip

Продолжительность: 00:39:00
Формат: avi
Видео: XviD, 640x496, 1440 kbps
Аудио: русский, оригинал, MP3 2.0, 128 kbps

Код:

General
Complete name                    : C:\Users\Security\Desktop\Евгений Урбанский.avi
Format                           : AVI
Format/Info                      : Audio Video Interleave
File size                        : 440 MiB
Duration                         : 39mn 0s
Overall bit rate                 : 1 578 Kbps
Writing application              : VirtualDubMod 1.5.10.3 | www.virtualdub-fr.org || (build 2550/release)
Writing library                  : VirtualDubMod build 2550/release

Video
ID                               : 0
Format                           : MPEG-4 Visual
Format profile                   : Streaming Video@L1
Format settings, BVOP            : Yes
Format settings, QPel            : No
Format settings, GMC             : No warppoints
Format settings, Matrix          : Default (MPEG)
Codec ID                         : XVID
Codec ID/Hint                    : XviD
Duration                         : 39mn 0s
Bit rate                         : 1 440 Kbps
Width                            : 640 pixels
Height                           : 496 pixels
Display aspect ratio             : 1.290
Frame rate                       : 25.000 fps
Resolution                       : 24 bits
Colorimetry                      : 4:2:0
Scan type                        : Progressive
Bits/(Pixel*Frame)               : 0.181
Stream size                      : 402 MiB (91%)
Writing library                  : XviD 1.2.1 (UTC 2008-12-04)

Audio
ID                               : 1
Format                           : MPEG Audio
Format version                   : Version 1
Format profile                   : Layer 3
Codec ID                         : 55
Codec ID/Hint                    : MP3
Duration                         : 39mn 0s
Bit rate mode                    : Constant
Bit rate                         : 128 Kbps
Channel(s)                       : 2 channels
Sampling rate                    : 48.0 KHz
Resolution                       : 16 bits
Stream size                      : 35.7 MiB (8%)
Alignment                        : Aligned on interleaves
Interleave, duration             : 40 ms (1.00 video frame)
Interleave, preload duration     : 504 ms
Writing library                  : LAME3.99r
Encoding settings                : -m s -V 4 -q 2 -lowpass 17 -b 128

picpicpicpicpicpic
Для увеличения картинки щелкните мышкой по превью

Этот торрент недоступен для скачивания без регистрации, однако доступен по публичной magnet-ссылке (источники с публичных трекеров). Перед использованием ссылки прочтите, пожалуйста Пользовательское соглашение, а также как можно дольше оставайтесь на раздаче! Для того, чтобы скачать сам торрент-файл (который видит больше источников), а также для того, чтобы поблагодарить релизера, вам необходимо зарегистрироваться. Если регистрироваться лень - вы можете также попробовать скачать релиз по нашим партнерским ссылкам ниже.

[underverse.su].t28817.torrent
Трекер: Зарегистрирован   [ 29.06.2013 17:10 ]  

Статус: проверено (by матроскин at 29.06.2013 17:11)
Поблагодарили: 1 человек
Тип торрента: публичный - доступные источники с открытых трекеров: 
Размер: 440 MB (занимает 0,1 DVDR, для записи нужно 1 болванка DVDR/RW)
 
 
Похожие темы
Форум Тема Автор Торрент Отв. Посл. сооб.
Зарубежное кино [DVDRip, Low-Res HDRip, и т.д.] В поисках блаженства / Finding Bliss (Джули Дэвис) [2009 г., мелодрама, комедия, DVDRip] VO [den904] Паукан
0 | 1

0 | 1890

8

21.11.2013 14:09

Зарубежное кино [DVDRip, Low-Res HDRip, и т.д.] В поисках радости / Finding Joy (Карло Де Роза) [2013 г., комедия, драма, WEB-DLRip] MVO (НТВ+) 90ytr90
0 | 0

0 | 1864

8

24.11.2013 12:00

Зарубежное кино [DVDRip, Low-Res HDRip, и т.д.] В поисках Фанни / Finding Fanny (Хоми Ададжаниа / Homi Adajania) [2014 г., драма, мелодрама, комедия, DVDRip] MVO (ICG) + Original (Hin) + Sub (Rus) 90ytr90
1 | 1

0 | 462

1

25.01.2015 13:27

Зарубежное кино [DVDRip, Low-Res HDRip, и т.д.] В поисках галактики / Galaxy Quest (Дин Паризо / Dean Parisot) [1999 г., фантастика, комедия, приключения, BDRip] MVO + Original (Eng) + AVO (Ю.Живов) + MVO (ОРТ) 90ytr90
0 | 0

0 | 247

4

31.01.2015 21:22

Зарубежное кино [DVDRip, Low-Res HDRip, и т.д.] В поисках галактики / Galaxy Quest (Дин Паризо / Dean Parisot) [1999 г., фантастика, комедия, приключения, BDRip] MVO + Original (Eng) + Sub (Rus, Eng) 90ytr90
3 | 0

0 | 289

9

31.01.2015 21:23

Зарубежное кино [DVDRip, Low-Res HDRip, и т.д.] В поисках Рождества / Finding Christmas (Харви Кросслэнд) [2013 г., мелодрама, SatRip] MVO makkol
2 | 0

0 | 323

1

17.06.2015 22:09

Зарубежное кино [DVDRip, Low-Res HDRip, и т.д.] В поисках Бобби Фишера / Выбор игры / Searching for Bobby Fischer (Стивен Зеллиан) [1993 г., драма, биография, WEB-DLRip] DVO + MVO + VO + Original + Subs makkol
14 | 3

0 | 482

4

08.03.2016 15:25

Зарубежное кино [DVDRip, Low-Res HDRip, и т.д.] В поисках чудес / Looking for Miracles (Кевин Салливан ) [1989 г., драма, семейный, DVDRip] VO + Original makkol
2 | 0

0 | 619

3

12.03.2016 11:49

T Зарубежное кино [DVDRip, Low-Res HDRip, и т.д.] В поисках огня / Digging for Fire (Джо Сванберг) [2015 г., драма, WEB-DLRip] MVO makkol
1 | 0

0 | 724

22

13.03.2016 23:32

Зарубежные мультфильмы В поисках Жу / Quest for Zhu (Боб Дусетте ) [2011 г., мультфильм,приключения,семейный, HDRip] МУХА~
0 | 0

1 | 1338

20

30.10.2011 12:32

матроскин Пол:Муж

29-Июн-2013 17:12


Яндекс.Метрика powered by Sphinx


В Н И М А Н И Е
Сайт не распространяет и не хранит электронные версии произведений, а лишь бесплатно и без коммерческой выгоды (не требуя взамен платы,
SMS и т.д.) предоставляет доступ к создаваемому пользователями каталогу ссылок на торрент-файлы, которые содержат только списки хеш-сумм.
Убедительная просьба с жалобами обращаться напрямую к пользователю, разместившему торрент файл.

Вверх