Loading...
Error

Пророчество / The Prophecy (Грегори Уайден / Gregory Widen) [1995 г., Ужасы, Мистика, Триллер, HDRip] MVO

Статистика раздачи
Размер:  1,46 GB   |    Зарегистрирован:  3 года 5 месяцев   |    Скачан:  13 раз

Полного источника не было: 6 месяцев

Сидов:  0  |  0 KB/s  ]   Личеров:  0  |  0 KB/s  ]

* - сиды/пиры с внешних источников

   
 
Автор Сообщение

Паукан Пол:Муж

29-Июн-2013 16:22

Пророчество / The Prophecy


Название: Пророчество
Оригинальное название: The Prophecy
Год выхода: 1995
Жанр: Ужасы, Мистика, Триллер
Режиссер: Грегори Уайден / Gregory Widen
В ролях: Кристофер Уокен, Элиас Котеас, Вирджиния Мэдсен, Эрик Штолц, Эдам Голдберг, Стив Хитнер, Дж. С. Куинн, Морайа Шайнинг-Дав Снайдер, Аманда Пламмер, Вигго Мортенсен

О фильме:
Первая война ангелов против Бога, который отдал свою любовь людям, закончилась поражением мятежников. Но никто не знал, что архангел Гавриил развязал и вторую, которая до сих пор не окончена. Своим секретным оружием Гавриил решил избрать самих людей - ну кто кроме них лучше поднаторел в войне, обмане и т.д.? И вот он ищет на Земле самую черную душу... Самая черная душа оказалась у некого полковника, ранее служившего в Корее и прославившегося там своими зверствами. Но и лояльные Богу ангелы не сидят сложа руки. Ангел Симон отправляется на Землю, чтобы спрятать черную душу полковника (он как раз преставился). Гавриил идет по пятам... Начинают погибать "люди", вернее ангелы. Со стороны полиции подключается некий Томас, который ранее хотел стать священником, но прямо на посвящении круто изменил свое решение. Он-то и поставил все кусочки мозаики на место и понял истинные мотивы участников. А тем временем Симон успевает "вселить" душу полковника в девочку и геройски сложить голову под пытками Гавриила, так и не признавшись в местоположении вышеозначенной души. Но Гавриил тоже не лыком шит, не зря архангел. Он докапывается до истины и назревает великая битва, исходом которой станет дальнейшая судьба человечества. Как ни странно, в ней живейшее участие принял и сам Люцифер, причем не на стороне архангела...



Страна: США
Студия: First Look International, NEO Motion Pictures, Overseas FilmGroup
Продолжительность: 01:37:45
Перевод: Профессиональный (многоголосый закадровый) МиксМедиа

Файл
Кодек: Xvid
Качество: HDRip c |BDRip 1080p|
Видео: 720x304, 23,976 fps, ~1932 kbps
Звук: AC3, 2 ch, 192.00 kbps
Общее
Полное имя : prorochstvo.1995.HDRip.avi
Формат : AVI
Формат/Информация : Audio Video Interleave
Размер файла : 1,46 Гбайт
Продолжительность : 1 ч. 37 м.
Общий поток : 2132 Кбит/сек
Программа кодирования : VirtualDubMod 1.5.10.2 (build 2542/release)
Библиотека кодирования : VirtualDubMod build 2542/release

Видео
Идентификатор : 0
Формат : MPEG-4 Visual
Профиль формата : Advanced Simple@L5
Параметр BVOP формата : 1
Параметр QPel формата : Нет
Параметр GMC формата : Без точки перехода
Параметр матрицы формата : Выборочная
Идентификатор кодека : XVID
Идентификатор кодека/Подсказка : XviD
Продолжительность : 1 ч. 37 м.
Битрейт : 1932 Кбит/сек
Ширина : 720 пикс.
Высота : 304 пикс.
Соотношение сторон : 2,35:1
Частота кадров : 23,976 кадр/сек
Цветовое пространство : YUV
Подвыборка цветности : 4:2:0
Битовая глубина : 8 бит
Тип развёртки : Прогрессивная
Метод сжатия : С потерями
Бит/(Пиксели*Кадры) : 0.368
Размер потока : 1,32 Гбайт (91%)
Библиотека кодирования : XviD 73

Аудио
Идентификатор : 1
Формат : AC-3
Формат/Информация : Audio Coding 3
Расширение режима : CM (complete main)
Идентификатор кодека : 2000
Продолжительность : 1 ч. 37 м.
Вид битрейта : Постоянный
Битрейт : 192 Кбит/сек
Канал(ы) : 2 канала(ов)
Расположение каналов : Front: L R
Частота : 48,0 КГц
Битовая глубина : 16 бит
Метод сжатия : С потерями
Размер потока : 133 Мбайт (9%)
Выравнивание : Разделение по промежуткам
Продолжительность промежутка : 42 мс. (1,01 видеокадр)
Время предзагрузки промежутка : 500 ms
Релиз от: Leon-masl


pic pic pic
Для увеличения картинки щелкните мышкой по превью

Этот торрент недоступен для скачивания без регистрации, однако доступен по публичной magnet-ссылке (источники с публичных трекеров). Перед использованием ссылки прочтите, пожалуйста Пользовательское соглашение, а также как можно дольше оставайтесь на раздаче! Для того, чтобы скачать сам торрент-файл (который видит больше источников), а также для того, чтобы поблагодарить релизера, вам необходимо зарегистрироваться. Если регистрироваться лень - вы можете также попробовать скачать релиз по нашим партнерским ссылкам ниже.

[underverse.su].t28813.torrent
Трекер: Зарегистрирован   [ 29.06.2013 16:22 ]  

Статус: проверено (by Паукан at 29.06.2013 16:22)
Поблагодарили: пока никто не поблагодарил...
Тип торрента: публичный - доступные источники с открытых трекеров: 
Размер: 1,46 GB (занимает 1/3 DVDR, для записи нужно 1 болванка DVDR/RW)
 
 
Похожие темы
Форум Тема Автор Торрент Отв. Посл. сооб.
Зарубежное кино [DVDRip, Low-Res HDRip, и т.д.] Пророчество древних воинов / Ancient Warriors (Уолтер Фон Хун) [2003 г., боевик, DVDRip] eXtatik
0 | 0

1 | 701

7

05.06.2011 17:00

Зарубежное кино [DVDRip, Low-Res HDRip, и т.д.] Пророчество Судного дня / Doomsday Prophecy (Джейсон Бурк) [2011 г., фантастика, HDRip] MVO RG NewCinema
1 | 0

0 | 1007

46

26.10.2012 08:14

Зарубежное кино [DVDRip, Low-Res HDRip, и т.д.] Пророчество Судного дня / Doomsday Prophecy (Джейсон Бурк) [2011 г., Фантастика, Катастрофа, HDRip] MVO 90ytr90
3 | 0

2 | 818

15

09.12.2012 10:31


Яндекс.Метрика powered by Sphinx


В Н И М А Н И Е
Сайт не распространяет и не хранит электронные версии произведений, а лишь бесплатно и без коммерческой выгоды (не требуя взамен платы,
SMS и т.д.) предоставляет доступ к создаваемому пользователями каталогу ссылок на торрент-файлы, которые содержат только списки хеш-сумм.
Убедительная просьба с жалобами обращаться напрямую к пользователю, разместившему торрент файл.

Вверх