Loading...
Error

Цена красоты / Beautiful (Дин О’Флаэрти) [2009 г., триллер, драма, HDRip] MVO

Статистика раздачи
Размер:  1,46 GB   |    Зарегистрирован:  3 года 5 месяцев   |    Скачан:  19 раз

Полного источника не было: 1 год 9 месяцев

Сидов:  0  |  0 KB/s  ]   Личеров:  0  |  0 KB/s  ]

* - сиды/пиры с внешних источников

   
 
Автор Сообщение

Паукан Пол:Муж

27-Июн-2013 12:55

Цена красоты / Beautiful


Название: Цена красоты
Оригинальное название: Beautiful
Год выхода: 2009
Жанр: триллер, драма
Режиссер: Дин О’Флаэрти
В ролях: Пета Уилсон, Аарон Джеффри, Ашер Кедди, Себастьян Грегори, Тахина Тоцци, Сократис Отто, Алекс Уильямсон, Лаура Тревор, Джо Мелдрам, Кори Бутвелл, Нат Нилсон, Бен Кош, Тори О’Нил, Пейдж Ади, Сара Рейнольдс, Джо Науман, Генри Хардинг, Блейк Баррелл

О фильме:
Скромный 14-летний мальчик Даниэль Хобсон живёт в тихом живописном районе. Он видит мир сквозь призму своего фотоаппарата. Его подруга рассказывает ему тайну о доме №46, и после этого она загадочно исчезает. После её исчезновения Даниэль начинает собственное расследование. Но всё оказывается не так просто, как казалось Даниэлю, и эти события кардинально меняют его жизнь...



Страна: Австралия
Студия: Kojo Pictures
Продолжительность: 01:41:39
Перевод: Профессиональный многоголосый закадровый

Файл
Кодек: XviD
Качество: HDRip
Видео: XviD, 1669 Кбит/с, 720x304
Звук: AC3, 6 ch, 384 Кбит/с
Семпл
Полное имя : Beautiful.2009.XviD.HDRip.avi
Формат : AVI
Формат/Информация : Audio Video Interleave
Размер файла : 1,46 Гбайт
Продолжительность : 1 ч. 41 м.
Общий поток : 2063 Кбит/сек
Программа кодирования : VirtualDubMod 1.5.10.2 (build 2540/release)
Библиотека кодирования : VirtualDubMod build 2540/release

Видео
Идентификатор : 0
Формат : MPEG-4 Visual
Профиль формата : Advanced Simple@L5
Параметр BVOP формата : 1
Параметр QPel формата : Нет
Параметр GMC формата : Без точки перехода
Параметр матрицы формата : Default (MPEG)
Идентификатор кодека : XVID
Идентификатор кодека/Подсказка : XviD
Продолжительность : 1 ч. 41 м.
Битрейт : 1670 Кбит/сек
Ширина : 720 пикселей
Высота : 304 пикселя
Соотношение сторон : 2,35:1
Частота кадров : 23,976 кадра/сек
Цветовое пространство : YUV
Субдискретизация насыщенности : 4:2:0
Битовая глубина : 8 бит
Тип развёртки : Прогрессивная
Метод сжатия : С потерями
Бит/(Пиксели*Кадры) : 0.318
Размер потока : 1,19 Гбайт (81%)
Библиотека кодирования : XviD 1.2.1 (UTC 2008-12-04)

Аудио
Идентификатор : 1
Формат : AC-3
Формат/Информация : Audio Coding 3
Расширение режима : CM (complete main)
Параметр Endianness формата : Big
Идентификатор кодека : 2000
Продолжительность : 1 ч. 41 м.
Вид битрейта : Постоянный
Битрейт : 384 Кбит/сек
Каналы : 6 каналов
Расположение каналов : Front: L C R, Side: L R, LFE
Частота : 48,0 КГц
Битовая глубина : 16 бит
Метод сжатия : С потерями
Размер потока : 279 Мбайт (19%)
Выравнивание : Соединение по промежуткам
Продолжительность промежутка : 42 мс. (1,00 видеокадр)
Время предзагрузки промежутка : 512 мс.
pic pic pic
Для увеличения картинки щелкните мышкой по превью

Этот торрент недоступен для скачивания без регистрации, однако доступен по публичной magnet-ссылке (источники с публичных трекеров). Перед использованием ссылки прочтите, пожалуйста Пользовательское соглашение, а также как можно дольше оставайтесь на раздаче! Для того, чтобы скачать сам торрент-файл (который видит больше источников), а также для того, чтобы поблагодарить релизера, вам необходимо зарегистрироваться. Если регистрироваться лень - вы можете также попробовать скачать релиз по нашим партнерским ссылкам ниже.

[underverse.su].t28769.torrent
Трекер: Зарегистрирован   [ 27.06.2013 12:55 ]  

Статус: проверено (by Паукан at 27.06.2013 12:55)
Поблагодарили: 3 человека
Тип торрента: публичный - доступные источники с открытых трекеров: 
Размер: 1,46 GB (занимает 0,33 DVDR, для записи нужно 1 болванка DVDR/RW)
 
 

Яндекс.Метрика powered by Sphinx


В Н И М А Н И Е
Сайт не распространяет и не хранит электронные версии произведений, а лишь бесплатно и без коммерческой выгоды (не требуя взамен платы,
SMS и т.д.) предоставляет доступ к создаваемому пользователями каталогу ссылок на торрент-файлы, которые содержат только списки хеш-сумм.
Убедительная просьба с жалобами обращаться напрямую к пользователю, разместившему торрент файл.

Вверх