Loading...
Error

Великие йоги Тибета / The Yogis of Tibet (Джефри Пилл) [2002 г., документальный, DVDRip] VO

Статистика раздачи
Размер:  1,46 GB   |    Зарегистрирован:  3 года 5 месяцев   |    Скачан:  33 раза

Полного источника не было: 8 месяцев

Сидов:  0  |  0 KB/s  ]   Личеров:  0  |  0 KB/s  ]

* - сиды/пиры с внешних источников

   
 
Автор Сообщение

RG NewCinema 

27-Июн-2013 09:23

Великие йоги Тибета / The Yogis of Tibet


Название: Великие йоги Тибета
Оригинальное название: The Yogis of Tibet
Год выхода: 2002

Режиссер: Джефри Пилл
Год выпуска: 2002
Жанр: Документальный

Описание:
Йог (yo-ge) - человек, который провел годы в отшельничестве, выполняя тайные упражнения для трансформации ментальных и физических аспектов своего существа, и посредством этих техник достиг невероятного контроля над своим умом и телом. Йоги, которых вы увидите в этом фильме, пошли на беспрецедентный риск. Однажды поклявшись держать свои практики в величайшей тайне, они согласились на эти уникальные интервью и редчайшие съемки, чтобы сохранить свою исчезающую культуру для последующих поколений...

Немного трагичный фильм о судьбе Тибетской Йоги.

Убедительная просьба всех особо "шустрых" внемлить просьбам тибетских йогинов и НЕ ПЫТАТЬСЯ повторять детали промелькнувших в фильме практик. Так же незачем удаляться в длительные ритриты -- это может помешать вашей работе или учебе. Ежедневной осознанностью и концентрацией на благом утвердитесь в шаматхе и випашьяне; очистите свой ум от обыденных омрачений, и ответ вашей Кармы не промедлит.

...применяя слова одного умного журналиста к данной ситуации: "Доступность сакральных текстов создает лишь иллюзию доступности их внутреннего содержания"

Продолжительность: 01:16:36
Качество видео: DVDRip

Перевод: Одноголосый закадровый, профессиональный

Видеокодек: DivX 4/5/6
Битрейт видео: ~1 297 Kbps
Размер кадра: 720х400
Аудиокодек: PCM, 2 channels
Битрейт аудио: 1 411.2 Kbps
General
Полное имя Великие Йоги Тибета [The Yogis of Tibet] (2002).avi
Формат : AVI
Формат/Информация : Audio Video Interleave
Размер файла : 1.46 GiB
Продолжительность : 1h 16mn
Общий поток : 2 720 Kbps
Библиотека кодирования : VirtualDub build 23774/release

Video
Идентификатор : 0
Формат : MPEG-4 Visual
Параметр BVOP формата : Yes
Параметр QPel формата : No
Параметр GMC формата : No warppoints
Параметр матрицы формата : Default (H.263)
Идентификатор кодека : DX50
Идентификатор кодека/Подсказка : DivX 5
Продолжительность : 1h 16mn
Битрейт : 1 297 Kbps
Ширина : 720 pixels
Высота : 400 pixels
Соотношение сторон : 16:9
Частота кадров : 29.970 fps
Цветовое пространство : YUV
Субдискретизация насыщенности : 4:2:0
Битовая глубина : 8 bits
Тип развёртки : Progressive
Метод сжатия : Lossy
Бит/(Пиксели*Кадры) : 0.150
Размер потока : 711 MiB (48%)
Библиотека кодирования : DivX 5.2.1 Alpha (UTC 2004-09-08)

Audio
Идентификатор : 1
Формат : PCM
Параметр Endianness формата : Little
Параметр Sign формата : Signed
Идентификатор кодека : 1
Продолжительность : 1h 16mn
Вид битрейта : Constant
Битрейт : 1 411.2 Kbps
Каналы : 2 channels
Частота : 44.1 KHz
Битовая глубина : 16 bits
Размер потока : 773 MiB (52%)
Выравнивание : Aligned on interleaves
Продолжительность промежутка : 33 ms (1.00 video frame)
Время предзагрузки промежутка : 500 ms
pic pic pic
Для увеличения картинки щелкните мышкой по превью

Этот торрент недоступен для скачивания без регистрации, однако доступен по публичной magnet-ссылке (источники с публичных трекеров). Перед использованием ссылки прочтите, пожалуйста Пользовательское соглашение, а также как можно дольше оставайтесь на раздаче! Для того, чтобы скачать сам торрент-файл (который видит больше источников), а также для того, чтобы поблагодарить релизера, вам необходимо зарегистрироваться. Если регистрироваться лень - вы можете также попробовать скачать релиз по нашим партнерским ссылкам ниже.

[underverse.su].t28761.torrent
Трекер: Зарегистрирован   [ 27.06.2013 09:23 ]  

Статус: проверено (by Чертёнок at 27.06.2013 11:53)
Поблагодарили: 2 человека
Тип торрента: публичный - доступные источники с открытых трекеров: 
Размер: 1,46 GB (занимает 1/3 DVDR, для записи нужно 1 болванка DVDR/RW)
 
 

Яндекс.Метрика powered by Sphinx


В Н И М А Н И Е
Сайт не распространяет и не хранит электронные версии произведений, а лишь бесплатно и без коммерческой выгоды (не требуя взамен платы,
SMS и т.д.) предоставляет доступ к создаваемому пользователями каталогу ссылок на торрент-файлы, которые содержат только списки хеш-сумм.
Убедительная просьба с жалобами обращаться напрямую к пользователю, разместившему торрент файл.

Вверх