Loading...
Error

Ватерлоо / Waterloo (Сергей Бондарчук) [1970 г., боевик, драма, военный, история, DVDRip] MVO

Статистика раздачи
Размер:  1,46 GB   |    Зарегистрирован:  3 года 5 месяцев   |    Скачан:  16 раз

Полного источника не было: 11 месяцев

Сидов:  0  |  0 KB/s  ]   Личеров:  0  |  0 KB/s  ]

* - сиды/пиры с внешних источников

   
 
Автор Сообщение

Паукан Пол:Муж

26-Июн-2013 21:31

Ватерлоо / Waterloo


Страна: СССР, Италия
Производство: Мосфильм, Dino de Laurentiis Cinematografica
Жанр: боевик, драма, военный, история
Год выпуска: 1970
Продолжительность: 02:08:07

Перевод: Профессиональный (многоголосый закадровый) - "Мосфильм"
Оригинальная аудиодорожка: нет
Cубтитры: нет

Режиссер: Сергей Бондарчук

В ролях:
Род Стайгер, Олег Видов, Василий Ливанов, Кристофер Пламмер, Сергей Закариадзе, Дэниэл О`Херлихи, Орсон Уэллс, Джек Хокинс, Ирина Скобцева-Бондарчук, Владимир Дружников, Вирджиния Маккенна, Майкл Уилдинг...

Описание:
Грандиозный фильм с массовыми батальными сценами, посвящённый событиям 1814-15 годов, последовавшим за взятием Парижа русскими войсками. Начинается фильм со сцены первого отречения Наполеона и его отъезда на остров Эльба. Вскоре Наполеон с небольшим отрядом тайно покидает остров Эльба и высаживается на юге Франции. После триумфального похода на Париж он снова становится во главе возрождённой армии и пытается оказать сопротивление коалиции Англии, России и Пруссии. Наполеон одерживает частичную победу над войсками Блюхера, но в битве при Ватерлоо терпит поражение, которое приводит к окончательному падению его империи...
В фильме в массовых сценах были заняты пятнадцать тысяч советских солдат, изображавших пехотные подразделения, и ещё две тысячи кавалеристов, изображавших казачьи кавалерийские части.


Семпл
Исходник: DVD9
Качество: DVDRip
Контейнер: AVI

Видео: 704x304 (2,35:1), 25 fps, XviD ~ 1234 kbps avg, 0.231 bit/pixel
Аудио: 48 kHz, Dolby AC3 5.1, 384 kbps
Общее
Полное имя : Vaterloo.1970.DVDRip_[Youtracker]_by_AVP Studio.avi
Формат : AVI
Формат/Информация : Audio Video Interleave
Размер файла : 1,46 Гбайт
Продолжительность : 2 ч. 8 м.
Общий поток : 1628 Кбит/сек
Программа кодирования : VirtualDubModRus 1.5.10.2 (build 2542/release)
Библиотека кодирования : VirtualDubMod build 2542/release

Видео
Идентификатор : 0
Формат : MPEG-4 Visual
Профиль формата : Advanced Simple@L5
Параметр BVOP формата : 1
Параметр QPel формата : Нет
Параметр GMC формата : Без точки перехода
Параметр матрицы формата : Выборочная
Идентификатор кодека : XVID
Идентификатор кодека/Подсказка : XviD
Продолжительность : 2 ч. 8 м.
Битрейт : 1234 Кбит/сек
Ширина : 704 пикселя
Высота : 304 пикселя
Соотношение сторон : 2,35:1
Частота кадров : 25,000 кадров/сек
Цветовое пространство : YUV
Субдискретизация насыщенности : 4:2:0
Битовая глубина : 8 бит
Тип развёртки : Прогрессивная
Метод сжатия : С потерями
Бит/(Пиксели*Кадры) : 0.231
Размер потока : 1,10 Гбайт (76%)
Библиотека кодирования : XviD 65

Аудио
Идентификатор : 1
Формат : AC-3
Формат/Информация : Audio Coding 3
Расширение режима : CM (complete main)
Идентификатор кодека : 2000
Продолжительность : 2 ч. 8 м.
Вид битрейта : Постоянный
Битрейт : 384 Кбит/сек
Каналы : 6 каналов
Расположение каналов : Front: L C R, Side: L R, LFE
Частота : 48,0 КГц
Битовая глубина : 16 бит
Метод сжатия : С потерями
Размер потока : 352 Мбайт (24%)
Выравнивание : Разделение по промежуткам
Продолжительность промежутка : 40 мс. (1,00 видеокадр)
Время предзагрузки промежутка : 500 мс
pic pic pic
Для увеличения картинки щелкните мышкой по превью

Этот торрент недоступен для скачивания без регистрации, однако доступен по публичной magnet-ссылке (источники с публичных трекеров). Перед использованием ссылки прочтите, пожалуйста Пользовательское соглашение, а также как можно дольше оставайтесь на раздаче! Для того, чтобы скачать сам торрент-файл (который видит больше источников), а также для того, чтобы поблагодарить релизера, вам необходимо зарегистрироваться. Если регистрироваться лень - вы можете также попробовать скачать релиз по нашим партнерским ссылкам ниже.

[underverse.su].t28749.torrent
Трекер: Зарегистрирован   [ 26.06.2013 21:31 ]  

Статус: проверено (by Паукан at 26.06.2013 21:31)
Поблагодарили: пока никто не поблагодарил...
Тип торрента: публичный - доступные источники с открытых трекеров: 
Размер: 1,46 GB (занимает 1/3 DVDR, для записи нужно 1 болванка DVDR/RW)
 
 

Яндекс.Метрика powered by Sphinx


В Н И М А Н И Е
Сайт не распространяет и не хранит электронные версии произведений, а лишь бесплатно и без коммерческой выгоды (не требуя взамен платы,
SMS и т.д.) предоставляет доступ к создаваемому пользователями каталогу ссылок на торрент-файлы, которые содержат только списки хеш-сумм.
Убедительная просьба с жалобами обращаться напрямую к пользователю, разместившему торрент файл.

Вверх