Loading...
Error

Падение запада (Новый мировой "педопорядок") [2013 г., документальный, DVDRip]

Статистика раздачи
Размер:  849 MB   |    Зарегистрирован:  3 года 5 месяцев   |    Скачан:  42 раза
Сидов:  1  |  0 KB/s  ]   Личеров:  0  |  0 KB/s  ]

* - сиды/пиры с внешних источников

   
 
Автор Сообщение

Паукан Пол:Муж

26-Июн-2013 12:23

[
Падение запада


Режиссер / Телекомпания: Студия "Слово"
Год выпуска: 2013
Жанр: Документальный

Описание:
Сегодня нам пытаются навязать различные формы безумия, которые уже давно считаются нормой в западных странах: эвтаназия стариков, однополые браки, разрушение института семьи, секспросвет в школе и в детсадах, толерантность ко всем видам извращений.

Так в Швеции, руководство одной из престижных гимназий распорядилось открыть еще одну, дополнительную раздевалку для детей, не определившихся со своим полом. Таким способом провоцируют терпимость к различным сексуальным порокам. Педерасты и лесбиянки, бисексуалы и транссексуалы - теперь всё это называется просто «друзья».

Недавно парламент Швеции принял закон «Об искусственном оплодотворении лесбийских пар» за счёт государства. О каких семейных ценностях может идти речь, если там ежегодно на 38 тыс. браков - 31 тыс. разводов. Государство финансирует исследования, которые должны доказать положительное влияние таких отношений на детей. Мол, «переходя после очередных разводов от одних родителей к другим, дети приобретают жизненный опыт и опыт социальных отношений, который им пригодится во взрослой жизни».

Во всей Европе введены сексуальные стандарты, по которым родители совместно с медиками и детсадовскими работниками обязаны учить детей «разным видам любви», в том числе, обязывают учить европейских детей мастурбации строго до четырех лет и никак не позже.

Продолжительность: 03:01:41
Качество видео: DVDRip

Видеокодек: Xvid
Битрейт видео: ~515 Кбит/сек
Размер кадра: 352х288
Аудиокодек: MP3
Битрейт аудио: 128 Кбит/сек
General
Полное имя Падение запада (Новый мировой педопорядок) [фильм Галины Царёвой] 2013.avi
Формат : AVI
Формат/Информация : Audio Video Interleave
Размер файла : 849 MiB
Продолжительность : 3h 1mn
Общий поток : 655 Kbps
Программа кодирования : Lavf52.32.0

Video
Идентификатор : 0
Формат : MPEG-4 Visual
Профиль формата : Simple@L3
Параметр BVOP формата : No
Параметр QPel формата : No
Параметр GMC формата : No warppoints
Параметр матрицы формата : Default (H.263)
Идентификатор кодека : XVID
Идентификатор кодека/Подсказка : XviD
Продолжительность : 3h 1mn
Битрейт : 515 Kbps
Ширина : 352 pixels
Высота : 288 pixels
Соотношение сторон : 1.222
Частота кадров : 25.000 fps
Стандарт вещания : PAL
Цветовое пространство : YUV
Субдискретизация насыщенности : 4:2:0
Битовая глубина : 8 bits
Тип развёртки : Progressive
Метод сжатия : Lossy
Бит/(Пиксели*Кадры) : 0.203
Размер потока : 667 MiB (79%)
Библиотека кодирования : XviD 1.2.1 (UTC 2008-12-04)

Audio
Идентификатор : 1
Формат : MPEG Audio
Версия формата : Version 1
Профиль формата : Layer 3
Режим : Joint stereo
Расширение режима : MS Stereo
Идентификатор кодека : 55
Идентификатор кодека/Подсказка : MP3
Продолжительность : 3h 1mn
Вид битрейта : Constant
Битрейт : 128 Kbps
Каналы : 2 channels
Частота : 44.1 KHz
Метод сжатия : Lossy
Размер потока : 166 MiB (20%)
Выравнивание : Aligned on interleaves
Продолжительность промежутка : 26 ms (0.65 video frame)
Библиотека кодирования : LAME3.98.2
pic pic pic
Для увеличения картинки щелкните мышкой по превью

Этот торрент недоступен для скачивания без регистрации, однако доступен по публичной magnet-ссылке (источники с публичных трекеров). Перед использованием ссылки прочтите, пожалуйста Пользовательское соглашение, а также как можно дольше оставайтесь на раздаче! Для того, чтобы скачать сам торрент-файл (который видит больше источников), а также для того, чтобы поблагодарить релизера, вам необходимо зарегистрироваться. Если регистрироваться лень - вы можете также попробовать скачать релиз по нашим партнерским ссылкам ниже.

[underverse.su].t28735.torrent
Трекер: Зарегистрирован   [ 26.06.2013 12:25 ]  

Статус: проверено (by Паукан at 26.06.2013 12:25)
Поблагодарили: 2 человека
Тип торрента: публичный - доступные источники с открытых трекеров: 
Размер: 849 MB (занимает 0,19 DVDR, для записи нужно 1 болванка DVDR/RW)
 
 

glebon4 

20-Авг-2013 09:07

фильм супер в Молдове на трекере закрывают .каждый день заливваю а они ссу....и закрывают(torrentsmd.com)

Яндекс.Метрика powered by Sphinx


В Н И М А Н И Е
Сайт не распространяет и не хранит электронные версии произведений, а лишь бесплатно и без коммерческой выгоды (не требуя взамен платы,
SMS и т.д.) предоставляет доступ к создаваемому пользователями каталогу ссылок на торрент-файлы, которые содержат только списки хеш-сумм.
Убедительная просьба с жалобами обращаться напрямую к пользователю, разместившему торрент файл.

Вверх