Loading...
Error

Трамвайный роман. Анатолий Папанов и Надежда Каратаева [2013 г., биография, документальный, TVRip]

Статистика раздачи
Размер:  557 MB   |    Зарегистрирован:  3 года 5 месяцев   |    Скачан:  2 раза

Полного источника не было: 2 года 9 месяцев

Сидов:  0  |  0 KB/s  ]   Личеров:  0  |  0 KB/s  ]

* - сиды/пиры с внешних источников

   
 
Автор Сообщение

матроскин Пол:Муж

26-Июн-2013 03:48

Трамвайный роман. Анатолий Папанов и Надежда Каратаева


Год выпуска: 2013
Жанр: биография, документальный
Страна: Россия
Режиссер: Светлана Стасенко
Выпущено: Телеканал "Культура"
Сюжет фильма:
Они вместе учились и жили неподалеку. Он каждый день ждал ее на трамвайной остановке. 9 мая 1945 года они гуляли по Красной площади, и среди всеобщего ликованья он неожиданно сказал: «А давай поженимся!». 43 года прожили вместе Анатолий Дмитриевич Папанов и Надежда Юрьевна Каратаева. Прожили дружно и гармонично. «Я – счастливая женщина!» - говорит о себе Надежда Юрьевна.
Качество видео: TVRip

Продолжительность: 00:38:59
Формат: avi
Видео: XviD, 720x432, 1860 kbps
Аудио: русский, оригинал, MP3 2.0, 128 kbps

Код:

General
Complete name                    : C:\Users\Security\Desktop\Больше чем любовь Папанов.avi
Format                           : AVI
Format/Info                      : Audio Video Interleave
File size                        : 557 MiB
Duration                         : 38mn 59s
Overall bit rate                 : 1 998 Kbps
Writing application              : VirtualDubMod 1.5.10.2 (build 2540/release)
Writing library                  : VirtualDubMod build 2540/release

Video
ID                               : 0
Format                           : MPEG-4 Visual
Format profile                   : Streaming Video@L1
Format settings, BVOP            : Yes
Format settings, QPel            : No
Format settings, GMC             : No warppoints
Format settings, Matrix          : Default (H.263)
Codec ID                         : XVID
Codec ID/Hint                    : XviD
Duration                         : 38mn 59s
Bit rate                         : 1 860 Kbps
Width                            : 720 pixels
Height                           : 432 pixels
Display aspect ratio             : 1.667
Frame rate                       : 25.000 fps
Resolution                       : 24 bits
Colorimetry                      : 4:2:0
Scan type                        : Progressive
Bits/(Pixel*Frame)               : 0.239
Stream size                      : 519 MiB (93%)
Writing library                  : XviD 1.2.0.dev47 (UTC 2006-11-01)

Audio
ID                               : 1
Format                           : MPEG Audio
Format version                   : Version 1
Format profile                   : Layer 3
Codec ID                         : 55
Codec ID/Hint                    : MP3
Duration                         : 38mn 59s
Bit rate mode                    : Constant
Bit rate                         : 128 Kbps
Channel(s)                       : 2 channels
Sampling rate                    : 48.0 KHz
Resolution                       : 16 bits
Stream size                      : 35.7 MiB (6%)
Alignment                        : Aligned on interleaves
Interleave, duration             : 40 ms (1.00 video frame)
Interleave, preload duration     : 504 ms
Writing library                  : LAME3.97
Encoding settings                : -m s -V 4 -q 2 -lowpass 17 -b 128

picpicpicpicpicpic
Для увеличения картинки щелкните мышкой по превью

Этот торрент недоступен для скачивания без регистрации, однако доступен по публичной magnet-ссылке (источники с публичных трекеров). Перед использованием ссылки прочтите, пожалуйста Пользовательское соглашение, а также как можно дольше оставайтесь на раздаче! Для того, чтобы скачать сам торрент-файл (который видит больше источников), а также для того, чтобы поблагодарить релизера, вам необходимо зарегистрироваться. Если регистрироваться лень - вы можете также попробовать скачать релиз по нашим партнерским ссылкам ниже.

[underverse.su].t28733.torrent
Трекер: Зарегистрирован   [ 26.06.2013 03:48 ]  

Статус: проверено (by матроскин at 26.06.2013 03:50)
Поблагодарили: 1 человек
Тип торрента: публичный - доступные источники с открытых трекеров: 
Размер: 557 MB (занимает 0,12 DVDR, для записи нужно 1 болванка DVDR/RW)
 
 

матроскин Пол:Муж

26-Июн-2013 03:52


Яндекс.Метрика powered by Sphinx


В Н И М А Н И Е
Сайт не распространяет и не хранит электронные версии произведений, а лишь бесплатно и без коммерческой выгоды (не требуя взамен платы,
SMS и т.д.) предоставляет доступ к создаваемому пользователями каталогу ссылок на торрент-файлы, которые содержат только списки хеш-сумм.
Убедительная просьба с жалобами обращаться напрямую к пользователю, разместившему торрент файл.

Вверх