Loading...
Error

Вольт в 3D / Bolt in 3D (Байрон Ховард Крис Уильямс) [2008 г., мультфильм, комедия, приключения, семейный,, BDRip 1080p] Dub Анаглиф (Дюбуа)

Статистика раздачи
Размер:  5,97 GB   |    Зарегистрирован:  5 лет 3 месяца   |    Скачан:  5 раз

Полного источника не было: 3 года

Сидов:  0  |  0 KB/s  ]   Личеров:  0  |  0 KB/s  ]

* - сиды/пиры с внешних источников

   
 
Автор Сообщение

slaventi-69 Пол:Муж

26-Июн-2013 02:29

Вольт в 3D / Bolt in 3D


Год выпуска: 2008
Жанр: мультфильм, комедия, приключения, семейный,
Страна: США
Режиссер: Байрон Ховард Крис Уильямс
Роли озвучивали: Джон Траволта, Майли Сайрус, Сьюзи Эссман, Марк Уолтон, Малкольм МакДауэлл, Джеймс Липтон, Грег Джерманн, Дидрих Бадер, Ник Свардсон, Жан-Поль Мано,
Роли дублировали: Владимир Вдовиченков, Мария Иващенко, Анжела Белянская, Леонид Барац, Владимир Майсурадзе,
Сюжет фильма:
Пес по кличке «Вольт» всю жизнь снимается в телевизионном сериале, где его герой — суперпес — спасает человечество, используя свои необычайные способности. Сам Вольт свято верит в собственную неуязвимость, невероятную силу, и умение летать. Когда же судьба забрасывает его в полный опасностей Большой Город, он все еще думает, что это — лишь очередной эпизод телесериала...

Доп. информация: Формат 3D: Анаглиф (Дюбуа)

Качество видео: BDRip 1080p

Продолжительность: 01:36:18
Формат: mkv
Видео: x264, 1920x1080, 7930 kbps
Аудио #1: русский, дублированный [лицензия], AC3 5.1, 384 kbps
Аудио #2: английский, оригинал, AC3 5.1, 384 kbps
Субтитры #1: вшитые отключаемые, S_TEXT/UTF8, русский
Субтитры #2: вшитые отключаемые, S_TEXT/UTF8, английский

Код:

General
Complete name                    : D:\DVD\Bolt 3D 2008 1080p(Anaglyph_Dubois).mkv
Format                           : Matroska
File size                        : 5.97 GiB
Duration                         : 1h 36mn
Overall bit rate                 : 8 875 Kbps
Writing application              : HandBrake 0.9.9
Writing library                  : libmkv 0.6.5

Video
ID                               : 1
Format                           : AVC
Format/Info                      : Advanced Video Codec
Format profile                   : Baseline@L4.0
Format settings, CABAC           : No
Format settings, ReFrames        : 1 frame
Muxing mode                      : Container profile=Unknown@4.0
Codec ID                         : V_MPEG4/ISO/AVC
Duration                         : 1h 36mn
Bit rate                         : 7 931 Kbps
Nominal bit rate                 : 8 002 Kbps
Width                            : 1 920 pixels
Height                           : 1 080 pixels
Display aspect ratio             : 16/9
Frame rate                       : 23.976 fps
Resolution                       : 24 bits
Colorimetry                      : 4:2:0
Scan type                        : Progressive
Bits/(Pixel*Frame)               : 0.160
Stream size                      : 5.33 GiB (89%)
Writing library                  : x264 core 130 r2273 b3065e6
Encoding settings                : cabac=0 / ref=1 / deblock=0:0:0 / analyse=0:0 / me=dia / subme=0 / psy=1 / psy_rd=1.00:0.00 / mixed_ref=0 / me_range=16 / chroma_me=1 / trellis=0 / 8x8dct=0 / cqm=0 / deadzone=21,11 / fast_pskip=1 / chroma_qp_offset=0 / threads=3 / lookahead_threads=1 / sliced_threads=0 / nr=0 / decimate=1 / interlaced=0 / bluray_compat=0 / constrained_intra=0 / bframes=0 / weightp=0 / keyint=240 / keyint_min=24 / scenecut=0 / intra_refresh=0 / rc=abr / mbtree=0 / bitrate=8002 / ratetol=1.0 / qcomp=0.60 / qpmin=0 / qpmax=69 / qpstep=4 / ip_ratio=1.40 / aq=0

Audio #1
ID                               : 2
Format                           : AC-3
Format/Info                      : Audio Coding 3
Codec ID                         : A_AC3
Duration                         : 1h 36mn
Bit rate mode                    : Constant
Bit rate                         : 384 Kbps
Channel(s)                       : 6 channels
Channel positions                : Front: L C R, Surround: L R, LFE
Sampling rate                    : 48.0 KHz
Stream size                      : 265 MiB (4%)
Language                         : Russian

Audio #2
ID                               : 3
Format                           : AC-3
Format/Info                      : Audio Coding 3
Codec ID                         : A_AC3
Duration                         : 1h 36mn
Bit rate mode                    : Constant
Bit rate                         : 384 Kbps
Channel(s)                       : 6 channels
Channel positions                : Front: L C R, Surround: L R, LFE
Sampling rate                    : 48.0 KHz
Stream size                      : 265 MiB (4%)
Language                         : English

Text #1
ID                               : 4
Format                           : UTF-8
Codec ID                         : S_TEXT/UTF8
Codec ID/Info                    : UTF-8 Plain Text
Language                         : Russian

Text #2
ID                               : 5
Format                           : UTF-8
Codec ID                         : S_TEXT/UTF8
Codec ID/Info                    : UTF-8 Plain Text
Language                         : English

Menu
00:00:00.000                     : Chapter 1
00:02:32.652                     : Chapter 2
00:11:01.702                     : Chapter 3
00:13:48.244                     : Chapter 4
00:19:20.993                     : Chapter 5
00:24:19.791                     : Chapter 6
00:27:15.425                     : Chapter 7
00:29:49.746                     : Chapter 8
00:35:26.874                     : Chapter 9
00:42:10.611                     : Chapter 10
00:51:43.016                     : Chapter 11
01:01:59.382                     : Chapter 12
01:08:17.134                     : Chapter 13
01:13:03.712                     : Chapter 14
01:18:54.104                     : Chapter 15
01:29:38.623                     : Chapter 16

picpicpicpic pic pic
Для увеличения картинки щелкните мышкой по превью

Этот торрент недоступен для скачивания без регистрации, однако доступен по публичной magnet-ссылке (источники с публичных трекеров). Перед использованием ссылки прочтите, пожалуйста Пользовательское соглашение, а также как можно дольше оставайтесь на раздаче! Для того, чтобы скачать сам торрент-файл (который видит больше источников), а также для того, чтобы поблагодарить релизера, вам необходимо зарегистрироваться. Если регистрироваться лень - вы можете также попробовать скачать релиз по нашим партнерским ссылкам ниже. Кроме того, зарегистрированным пользователям не показывается всплывающая реклама при скачивании.

[underverse.su].t28730.torrent
Трекер: Зарегистрирован   [ 26.06.2013 02:29 ]  

Статус: проверено (by Чертёнок at 26.06.2013 07:59)
Поблагодарили: пока никто не поблагодарил...
Тип торрента: публичный - доступные источники с открытых трекеров: 
Размер: 5,97 GB (занимает 1,36 DVDR, для записи нужно 2 болванки DVDR/RW)
 
 

31-Янв-2018 19:01

Топик был перенесен из форума Мультфильмы [HDDVDRip / BDRip / WEB-DL / HDTV 1080/720р] в форум Архив (мультфильмы высокого качества)


[cron robot]
 

Яндекс.Метрика powered by Sphinx


В Н И М А Н И Е
Сайт не распространяет и не хранит электронные версии произведений, а лишь бесплатно и без коммерческой выгоды (не требуя взамен платы,
SMS и т.д.) предоставляет доступ к создаваемому пользователями каталогу ссылок на торрент-файлы, которые содержат только списки хеш-сумм.
Убедительная просьба с жалобами обращаться напрямую к пользователю, разместившему торрент файл.

Вверх