Loading...
Error

Риф 3D / The Reef 2: High Tide in 3D (Марк А.З. Диппе Тадонг Пак) [2012 г., мультфильм, мюзикл, семейный,, BDRip 1080p] Dub Анаглиф (Дюбуа)

Статистика раздачи
Размер:  4,96 GB   |    Зарегистрирован:  4 года 11 месяцев   |    Скачан:  15 раз

Полного источника не было: 2 года 6 месяцев

Сидов:  0  |  0 KB/s  ]   Личеров:  0  |  0 KB/s  ]

* - сиды/пиры с внешних источников

   
 
Автор Сообщение

slaventi-69 Пол:Муж

25-Июн-2013 14:44

Риф 3D / The Reef 2: High Tide in 3D


Год выпуска: 2012
Жанр: мультфильм, мюзикл, семейный,
Страна: Корея Южная
Режиссер: Марк А.З. Диппе Тадонг Пак
Роли озвучивали: Дрейк Белл, Энди Дик, Фрэн Дрешер, Фрэнки Джонас, Джейми Кеннеди, Донал Лог, Бизи Филиппс, Роб Шнайдер, Стефен Стэнтон, Мэттью Уиллиг,
Роли дублировали: Никита Пресняков, Антон Богданов, Дина Гарипова, Владимир Рыбальченко,
Сюжет фильма:
Пай живет на прекрасном коралловом Рифе, а по соседству обитают сотни злобных акул. Пай — единственный на Рифе, кто уверен, рано или поздно акулы атакуют и нужно быть готовым за себя постоять. Жители Рифа всегда мирно соседствовали с акулами и не планируют ни с кем воевать. Пай пытается организовать занятия по самообороне, но на них никто не приходит, и ему приходится изучать боевые искусства одному, под руководством мудрого черепаха Нерисса.Однажды в городе появляется веселый Ронни, который увлекает местных жителей в подготовку к водному празднику в жанре представлений Cirque De Soleil. Жители Рифа очарованы Ронни! Но никто не догадывается, что Ронни прислали акулы: его задача усыпить бдительность жителей и захватить Риф...

Доп. информация: Формат 3D: Анаглиф (Дюбуа)



Качество видео: BDRip 1080p

Продолжительность: 01:20:18
Формат: mkv
Видео: x264, 1920x1080, 7777 kbps
Аудио #1: русский, дублированный [лицензия], AC3 5.1, 448 kbps
Аудио #2: английский, оригинал, AC3 5.1, 448 kbps

Код:

General
Complete name                    : D:\DVD\The.Reef2.High.Tide.3D.(Anaglyph_Dubois).mkv
Format                           : Matroska
File size                        : 4.96 GiB
Duration                         : 1h 20mn
Overall bit rate                 : 8 849 Kbps
Writing application              : HandBrake 0.9.9
Writing library                  : libmkv 0.6.5

Video
ID                               : 1
Format                           : AVC
Format/Info                      : Advanced Video Codec
Format profile                   : Main@L4.0
Format settings, CABAC           : No
Format settings, ReFrames        : 4 frames
Muxing mode                      : Container profile=Unknown@4.0
Codec ID                         : V_MPEG4/ISO/AVC
Duration                         : 1h 20mn
Bit rate                         : 7 777 Kbps
Nominal bit rate                 : 8 002 Kbps
Width                            : 1 920 pixels
Height                           : 1 080 pixels
Display aspect ratio             : 16/9
Frame rate                       : 23.976 fps
Resolution                       : 24 bits
Colorimetry                      : 4:2:0
Scan type                        : Progressive
Bits/(Pixel*Frame)               : 0.156
Stream size                      : 4.36 GiB (88%)
Writing library                  : x264 core 130 r2273 b3065e6
Encoding settings                : cabac=0 / ref=1 / deblock=0:1:1 / analyse=0:0 / me=dia / subme=0 / psy=1 / psy_rd=0.40:0.00 / mixed_ref=0 / me_range=16 / chroma_me=1 / trellis=0 / 8x8dct=0 / cqm=0 / deadzone=21,11 / fast_pskip=1 / chroma_qp_offset=0 / threads=1 / lookahead_threads=1 / sliced_threads=0 / nr=0 / decimate=1 / interlaced=0 / bluray_compat=0 / constrained_intra=0 / bframes=2 / b_pyramid=2 / b_adapt=0 / b_bias=0 / direct=1 / weightb=0 / open_gop=0 / weightp=0 / keyint=240 / keyint_min=24 / scenecut=0 / intra_refresh=0 / rc=abr / mbtree=0 / bitrate=8002 / ratetol=1.0 / qcomp=0.60 / qpmin=0 / qpmax=69 / qpstep=4 / ip_ratio=1.40 / pb_ratio=1.30 / aq=0

Audio #1
ID                               : 2
Format                           : AC-3
Format/Info                      : Audio Coding 3
Codec ID                         : A_AC3
Duration                         : 1h 20mn
Bit rate mode                    : Constant
Bit rate                         : 448 Kbps
Channel(s)                       : 6 channels
Channel positions                : Front: L C R, Surround: L R, LFE
Sampling rate                    : 48.0 KHz
Stream size                      : 257 MiB (5%)
Language                         : Russian

Audio #2
ID                               : 3
Format                           : AC-3
Format/Info                      : Audio Coding 3
Codec ID                         : A_AC3
Duration                         : 1h 20mn
Bit rate mode                    : Constant
Bit rate                         : 448 Kbps
Channel(s)                       : 6 channels
Channel positions                : Front: L C R, Surround: L R, LFE
Sampling rate                    : 48.0 KHz
Stream size                      : 257 MiB (5%)
Language                         : English

Menu
00:00:00.000                     : Chapter 1
00:09:15.346                     : Chapter 2
00:19:53.609                     : Chapter 3
00:31:11.536                     : Chapter 4
00:42:11.695                     : Chapter 5
00:52:03.245                     : Chapter 6
01:02:38.796                     : Chapter 7
01:14:53.363                     : Chapter 8

picpicpicpic pic pic
Для увеличения картинки щелкните мышкой по превью

Этот торрент недоступен для скачивания без регистрации, однако доступен по публичной magnet-ссылке (источники с публичных трекеров). Перед использованием ссылки прочтите, пожалуйста Пользовательское соглашение, а также как можно дольше оставайтесь на раздаче! Для того, чтобы скачать сам торрент-файл (который видит больше источников), а также для того, чтобы поблагодарить релизера, вам необходимо зарегистрироваться. Если регистрироваться лень - вы можете также попробовать скачать релиз по нашим партнерским ссылкам ниже. Кроме того, зарегистрированным пользователям не показывается всплывающая реклама при скачивании.

[underverse.su].t28717.torrent
Трекер: Зарегистрирован   [ 25.06.2013 14:44 ]  

Статус: проверено (by Чертёнок at 25.06.2013 14:49)
Поблагодарили: 2 человека
Тип торрента: публичный - доступные источники с открытых трекеров: 
Размер: 4,96 GB (занимает 1,13 DVDR, для записи нужно 2 болванки DVDR/RW)
 
 

faor09 

23-Авг-2013 13:19

Дайте скорости

31-Янв-2018 19:01

Топик был перенесен из форума Мультфильмы [HDDVDRip / BDRip / WEB-DL / HDTV 1080/720р] в форум Архив (мультфильмы высокого качества)


[cron robot]
 

Яндекс.Метрика powered by Sphinx


В Н И М А Н И Е
Сайт не распространяет и не хранит электронные версии произведений, а лишь бесплатно и без коммерческой выгоды (не требуя взамен платы,
SMS и т.д.) предоставляет доступ к создаваемому пользователями каталогу ссылок на торрент-файлы, которые содержат только списки хеш-сумм.
Убедительная просьба с жалобами обращаться напрямую к пользователю, разместившему торрент файл.

Вверх