Loading...
Error

Стукач / Snitch (Рик Роман Во) [2012 г., триллер, драма, криминал, BDRip] Dub + Original + Sub(Eng) HQ Underverse

Статистика раздачи
Размер:  2,17 GB   |    Зарегистрирован:  3 года 5 месяцев   |    Скачан:  20 раз

Полного источника не было: 3 года

Сидов:  0  |  0 KB/s  ]   Личеров:  0  |  0 KB/s  ]

* - сиды/пиры с внешних источников

   
 
Автор Сообщение

HQ Underverse 

25-Июн-2013 10:52

Стукач / Snitch


Год выпуска: 2012
Жанр: триллер, драма, криминал
Страна: США , ОАЭ
Режиссер: Рик Роман Во
В ролях: Дуэйн Джонсон, Барри Пеппер, Джон Бернтал, Сьюзен Сарандон, Майкл К. Уильямс, Рафи Гаврон, Мелина Канакаридис, Надин Веласкес, Бенджамин Брэтт, Лела Лорен
Сюжет фильма:
Ради спасения сына, которому грозит срок за продажу наркотиков, отец идет на сделку с полицией. Он должен внедриться в самое сердце наркомафии.

  • Мировая премьера: 21 февраля 2013
  • Российская премьера: 21 февраля 2013, «Парадиз»

/
Качество видео: BDRip

Продолжительность: 01:51:52
Формат: avi
Видео: XviD, 720x304, 1866 kbps
Аудио #1: русский, дублированный [лицензия], AC3 5.1, 448 kbps
Аудио #2: английский, оригинал, AC3 5.1, 448 kbps
Субтитры: внешние, SRT, английский

Код:

General
Complete name                    : F:\Стукач\Snitch.2013.BDRip.XviD.AC3.Rus.D.Eng.O.HQ.Underverse.avi
Format                           : AVI
Format/Info                      : Audio Video Interleave
Format profile                   : OpenDML
File size                        : 2.17 GiB
Duration                         : 1h 51mn
Overall bit rate                 : 2 780 Kbps
Writing application              : VirtualDubMod 1.5.10.2 (build 2540/release)
Writing library                  : VirtualDubMod build 2540/release

Video
ID                               : 0
Format                           : MPEG-4 Visual
Format profile                   : Streaming Video@L1
Format settings, BVOP            : Yes
Format settings, QPel            : No
Format settings, GMC             : No warppoints
Format settings, Matrix          : Custom
Muxing mode                      : Packed bitstream
Codec ID                         : XVID
Codec ID/Hint                    : XviD
Duration                         : 1h 51mn
Bit rate                         : 1 866 Kbps
Width                            : 720 pixels
Height                           : 304 pixels
Display aspect ratio             : 2.35
Frame rate                       : 23.976 fps
Resolution                       : 24 bits
Colorimetry                      : 4:2:0
Scan type                        : Progressive
Bits/(Pixel*Frame)               : 0.356
Stream size                      : 1.46 GiB (67%)
Writing library                  : XviD 64

Audio #1
ID                               : 1
Format                           : AC-3
Format/Info                      : Audio Coding 3
Codec ID                         : 2000
Duration                         : 1h 51mn
Bit rate mode                    : Constant
Bit rate                         : 448 Kbps
Channel(s)                       : 6 channels
Channel positions                : Front: L C R, Surround: L R, LFE
Sampling rate                    : 48.0 KHz
Stream size                      : 358 MiB (16%)
Alignment                        : Split accross interleaves
Interleave, duration             : 42 ms (1.00 video frame)
Interleave, preload duration     : 500 ms

Audio #2
ID                               : 2
Format                           : AC-3
Format/Info                      : Audio Coding 3
Codec ID                         : 2000
Duration                         : 1h 51mn
Bit rate mode                    : Constant
Bit rate                         : 448 Kbps
Channel(s)                       : 6 channels
Channel positions                : Front: L C R, Surround: L R, LFE
Sampling rate                    : 48.0 KHz
Stream size                      : 358 MiB (16%)
Alignment                        : Split accross interleaves
Interleave, duration             : 42 ms (1.00 video frame)
Interleave, preload duration     : 500 ms

picpicpic
Для увеличения картинки щелкните мышкой по превью

Этот торрент недоступен для скачивания без регистрации, однако доступен по публичной magnet-ссылке (источники с публичных трекеров). Перед использованием ссылки прочтите, пожалуйста Пользовательское соглашение, а также как можно дольше оставайтесь на раздаче! Для того, чтобы скачать сам торрент-файл (который видит больше источников), а также для того, чтобы поблагодарить релизера, вам необходимо зарегистрироваться. Если регистрироваться лень - вы можете также попробовать скачать релиз по нашим партнерским ссылкам ниже.

[underverse.su].t28700.torrent
Трекер: Зарегистрирован   [ 25.06.2013 10:52 ]  

Статус: проверено (by HQ Underverse at 25.06.2013 10:52)
Поблагодарили: 1 человек
Тип торрента: публичный - доступные источники с открытых трекеров: 
Размер: 2,17 GB (занимает 1/2 DVDR, для записи нужно 1 болванка DVDR/RW)
 
 
Похожие темы
Форум Тема Автор Торрент Отв. Посл. сооб.
Зарубежное кино [DVDRip, Low-Res HDRip, и т.д.] Стукач / Snitch (Рик Роман Во) [2013 г., боевик, триллер, драма, HDRip] Dub + Original [лицензия] Чертёнок
169 | 1

0 | 1496

116

28.05.2013 18:40

Зарубежное кино [DVDRip, Low-Res HDRip, и т.д.] Стукач / Snitch (Рик Роман Во) [2013 г., боевик, триллер, драма, HDRip] Dub TERRAN
0 | 0

0 | 609

19

28.05.2013 19:03

Зарубежное кино [DVDRip, Low-Res HDRip, и т.д.] Стукач / Snitch (Рик Роман Во) [2013 г., боевик, триллер, драма, BDRip-AVC] DUB + Original + Sub (Rus, Eng) TERRAN
3 | 0

0 | 660

16

28.05.2013 19:37

Зарубежное кино [DVDRip, Low-Res HDRip, и т.д.] Стукач / Snitch (Рик Роман Во) [2013 г., боевик, триллер, драма, BDRip-AVC] DUB + Sub (Rus, Eng) TERRAN
2 | 0

0 | 648

20

28.05.2013 19:40

Зарубежное кино [DVDRip, Low-Res HDRip, и т.д.] Стукач / Snitch (Рик Роман Во) [2013 г., боевик, триллер, драма, BDRip] DUB Печаль'ka
5 | 0

0 | 609

14

29.05.2013 11:25

Зарубежное кино [DVD / HDDVD / BD / Remux] Стукач / Snitch (Рик Роман Во) [2013 г., боевик, триллер, драма, Blu-Ray Remux ] DUB + Original + Sub (Eng) TERRAN
2 | 0

0 | 613

12

28.05.2013 19:34

Видео для смартфонов Стукач / Snitch [2013 г., Боевик, триллер, драма, HDRip] Dub | КПК | Лицензия Чертёнок
0 | 0

0 | 716

14

10.06.2013 09:12

миха7 

26-Июн-2013 19:55

ПРИКОЛЬНЫЙ ФИЛЬМ

siski 

03-Июл-2013 11:25

поподробнее можно написать, стоит смотреть или не стоит. СПС

Яндекс.Метрика powered by Sphinx


В Н И М А Н И Е
Сайт не распространяет и не хранит электронные версии произведений, а лишь бесплатно и без коммерческой выгоды (не требуя взамен платы,
SMS и т.д.) предоставляет доступ к создаваемому пользователями каталогу ссылок на торрент-файлы, которые содержат только списки хеш-сумм.
Убедительная просьба с жалобами обращаться напрямую к пользователю, разместившему торрент файл.

Вверх