Loading...
Error

Мудрые детки / Wise Kids (Стивен Коун / Stephen Cone) [2011 г., драма, мелодрама, DVDRip] VO

Статистика раздачи
Размер:  706 MB   |    Зарегистрирован:  3 года 5 месяцев   |    Скачан:  1 раз

Полного источника не было: 2 года 5 месяцев

Сидов:  0  |  0 KB/s  ]   Личеров:  0  |  0 KB/s  ]

* - сиды/пиры с внешних источников

   
 
Автор Сообщение

Паукан Пол:Муж

25-Июн-2013 06:45

Мудрые детки / Wise Kids


Страна: США
Жанр: Драма, мелодрама
Год выпуска: 2011
Продолжительность: 01:35:23
Перевод: Любительский одноголосый (Перевод: Саша Париж, Озвучка: В. Кошкин)

Режиссер: Стивен Коун / Stephen Cone

В ролях: Молли Кунц, Тайлер Росс, Элисон Торем, Мэтт ДэКаро, Садье Рифай, Стивен Коун, Клифф Чемберлен, Сэди Роджерс, Энн Уитни, Родни Ли Роджерс.

Описание: Три главных героя учащиеся баптисткой школы - Бри, дочь пастора, пребывающая в изнурительных сомнениях, гиперактивная Лора, лучшая подруга Бри и мальчик Тим, верующий, с открытой душой, сына отца-одиночки. История рассказанная в этом фильме происходит в городке Чарльстоун, в момент между колледжем и средней школой, когда кажется, что жизнь состоит только из одних вопросов, на которые нет ответов, а широко открытое будущее пугает...



Качество видео: DVDRip
Формат видео: AVI
Видео: XviD; 640х352; 25 fps; ~897 kbps
Аудио: MPEG Audio Layer 3; 48,0 kHz; Stereo; 128 kbps

СЕМПЛ
Общее
Полное имя : The Wise Kids (2011).avi
Формат : AVI
Формат/Информация : Audio Video Interleave
Размер файла : 706 Мбайт
Продолжительность : 1 ч. 35 м.
Общий поток : 1034 Кбит/сек

Видео
Идентификатор : 0
Формат : MPEG-4 Visual
Профиль формата : Advanced Simple@L5
Параметр BVOP формата : 2
Параметр QPel формата : Нет
Параметр GMC формата : Без точки перехода
Параметр матрицы формата : Default (H.263)
Идентификатор кодека : XVID
Идентификатор кодека/Подсказка : XviD
Продолжительность : 1 ч. 35 м.
Битрейт : 897 Кбит/сек
Ширина : 640 пикселей
Высота : 352 пикселя
Соотношение сторон : 16:9
Частота кадров : 25,000 кадров/сек
Цветовое пространство : YUV
Субдискретизация насыщенности : 4:2:0
Битовая глубина : 8 бит
Тип развёртки : Прогрессивная
Метод сжатия : С потерями
Бит/(Пиксели*Кадры) : 0.159
Размер потока : 612 Мбайт (87%)
Библиотека кодирования : XviD 64

Аудио
Идентификатор : 1
Формат : MPEG Audio
Версия формата : Version 1
Профиль формата : Layer 3
Идентификатор кодека : 55
Идентификатор кодека/Подсказка : MP3
Продолжительность : 1 ч. 35 м.
Вид битрейта : Постоянный
Битрейт : 128 Кбит/сек
Каналы : 2 канала
Частота : 48,0 КГц
Метод сжатия : С потерями
Размер потока : 87,3 Мбайт (12%)
Выравнивание : Разделение по промежуткам
Продолжительность промежутка : 40 мс. (1,00 видеокадр)
Время предзагрузки промежутка : 500 мс.
Библиотека кодирования : LAMELAME_MAJOR_VERSI
pic pic pic
Для увеличения картинки щелкните мышкой по превью

Этот торрент недоступен для скачивания без регистрации, однако доступен по публичной magnet-ссылке (источники с публичных трекеров). Перед использованием ссылки прочтите, пожалуйста Пользовательское соглашение, а также как можно дольше оставайтесь на раздаче! Для того, чтобы скачать сам торрент-файл (который видит больше источников), а также для того, чтобы поблагодарить релизера, вам необходимо зарегистрироваться. Если регистрироваться лень - вы можете также попробовать скачать релиз по нашим партнерским ссылкам ниже.

[underverse.su].t28690.torrent
Трекер: Зарегистрирован   [ 25.06.2013 06:45 ]  

Статус: проверено (by Паукан at 25.06.2013 06:45)
Поблагодарили: пока никто не поблагодарил...
Тип торрента: публичный - доступные источники с открытых трекеров: 
Размер: 706 MB (занимает 0,16 DVDR, для записи нужно 1 болванка DVDR/RW)
 
 

Яндекс.Метрика powered by Sphinx


В Н И М А Н И Е
Сайт не распространяет и не хранит электронные версии произведений, а лишь бесплатно и без коммерческой выгоды (не требуя взамен платы,
SMS и т.д.) предоставляет доступ к создаваемому пользователями каталогу ссылок на торрент-файлы, которые содержат только списки хеш-сумм.
Убедительная просьба с жалобами обращаться напрямую к пользователю, разместившему торрент файл.

Вверх