Loading...
Error

А в это время / Meanwhile (Хэл Хартли / Hal Hartley) [2011 г., драма, комедия, DVDRip] Original (Eng) + Sub (Rus)

Статистика раздачи
Размер:  614 MB   |    Зарегистрирован:  3 года 5 месяцев   |    Скачан:  10 раз

Полного источника не было: 1 год 8 месяцев

Сидов:  0  |  0 KB/s  ]   Личеров:  0  |  0 KB/s  ]

* - сиды/пиры с внешних источников

   
 
Автор Сообщение

Доктор Ватсон Пол:Муж

24-Июн-2013 10:44

А в это время / Meanwhile


Год выпуска: 2011
Жанр: драма, комедия
Страна: США
Режиссер: Хэл Хартли / Hal Hartley
В ролях: Д.Дж. Мендел, Даниэль Мейер, Паллави Састри, Челси Кроу, Михо Никайдо, Пенелопа Лэгос, Лиза Хикман, Джеймс Рич, Ходжи Фортуна, Джордж Фистер
Сюжет фильма:
Джо Фултон — человек, который может все: и устранить засор в раковине, и найти иностранных инвесторов для строительства. Он занимается интернет-рекламой и пишет роман. А еще он неплохо играет на ударных. Но успех почему-то обходит его стороной. Расставшись с подружкой в Бруклине, Джо пешком отправляется на Манхэттен и на мосту встречает странную женщину. День идет своим чередом, Джо решает свои и чужие проблемы и вдруг слышит по радио, что кто-то спрыгнул с Бруклинского моста. Но виноват ли в этом Фултон?

  • Дополнительно о переводе: Перевод - mevoxem, редактирование – alex-kin

Качество видео: DVDRip

Продолжительность: 00:58:13
Формат: AVI
Видео: XviD, 640х368 (16:9), 1334 kbps
Аудио: английский, оригинал, MP3 2.0, 128 kbps
Субтитры: тип: внешние, русский, формат: SRT

Код:

Format : AVI
Format/Info : Audio Video Interleave
File size : 614 MiB
Duration : 58mn 13s
Overall bit rate : 1 475 Kbps

Video
ID : 0
Format : MPEG-4 Visual
Format profile : Simple@L3
Format settings, BVOP : No
Format settings, QPel : No
Format settings, GMC : No warppoints
Format settings, Matrix : Default (H.263)
Codec ID : XVID
Codec ID/Hint : XviD
Duration : 58mn 13s
Bit rate : 1 334 Kbps
Width : 640 pixels
Height : 368 pixels
Display aspect ratio : 16:9
Frame rate : 23.976 fps
Resolution : 8 bits
Colorimetry : 4:2:0
Scan type : Progressive
Bits/(Pixel*Frame) : 0.236
Stream size : 556 MiB (90%)
Writing library : XviD 1.1.2 (UTC 2006-11-01)

Audio
ID : 1
Format : MPEG Audio
Format version : Version 1
Format profile : Layer 3
Mode : Joint stereo
Format_Settings_ModeExtension : MS Stereo
Codec ID : 55
Codec ID/Hint : MP3
Duration : 58mn 13s
Bit rate mode : Constant
Bit rate : 128 Kbps
Channel(s) : 2 channels
Sampling rate : 48.0 KHz
Stream size : 53.3 MiB (9%)
Alignment : Split accross interleaves
Interleave, duration : 24 ms (0.58 video frame)
Interleave, preload duration : 24 ms
Writing library : LAME3.98
picpicpic
Для увеличения картинки щелкните мышкой по превью

Этот торрент недоступен для скачивания без регистрации, однако доступен по публичной magnet-ссылке (источники с публичных трекеров). Перед использованием ссылки прочтите, пожалуйста Пользовательское соглашение, а также как можно дольше оставайтесь на раздаче! Для того, чтобы скачать сам торрент-файл (который видит больше источников), а также для того, чтобы поблагодарить релизера, вам необходимо зарегистрироваться. Если регистрироваться лень - вы можете также попробовать скачать релиз по нашим партнерским ссылкам ниже.

[underverse.su].t28669.torrent
Трекер: Зарегистрирован   [ 24.06.2013 10:44 ]  

Статус: проверено (by Чертёнок at 24.06.2013 11:36)
Поблагодарили: 1 человек
Тип торрента: публичный - доступные источники с открытых трекеров: 
Размер: 614 MB (занимает 0,14 DVDR, для записи нужно 1 болванка DVDR/RW)
 
 

Яндекс.Метрика powered by Sphinx


В Н И М А Н И Е
Сайт не распространяет и не хранит электронные версии произведений, а лишь бесплатно и без коммерческой выгоды (не требуя взамен платы,
SMS и т.д.) предоставляет доступ к создаваемому пользователями каталогу ссылок на торрент-файлы, которые содержат только списки хеш-сумм.
Убедительная просьба с жалобами обращаться напрямую к пользователю, разместившему торрент файл.

Вверх