Loading...
Error

Королева Версаля / The Queen of Versailles [2012 г., документальный, биография, BDRip] MVO + Original

Статистика раздачи
Размер:  4,51 GB   |    Зарегистрирован:  3 года 5 месяцев   |    Скачан:  1 раз

Полного источника не было: 3 года 4 месяца

Сидов:  0  |  0 KB/s  ]   Личеров:  0  |  0 KB/s  ]

* - сиды/пиры с внешних источников

   
 
Автор Сообщение

Доктор Ватсон Пол:Муж

24-Июн-2013 10:35

Королева Версаля / The Queen of Versailles


Год выпуска: 2012
Жанр: документальный, биография
Страна: США
Режиссер: Лорен Гринфилд / Lauren Greenfield
Сюжет фильма:
С эпическим размахом шекспировской трагедии фильм рассказывает о судьбе семейной пары миллиардеров Дэвида и Джеки Сигел – магната в области недвижимости и победительницы многочисленных конкурсов красоты, которые пытаются возвести дом своей мечты.
«Дом» и детская площадка для их 8-ми детей – это целое королевство, для строительства которого было заказано мрамора на 5 миллионов долларов, – такое же количество было использовано для строительства Версаля во Франции, который и послужил источником вдохновения для супругов.
После финансового кризиса 2008 года этот новый Версаль превращается в символические декорации, на фоне которых паре приходится кардинальным образом изменить свой образ жизни и, в конечном итоге, выставить дом на продажу.
Качество видео: BDRip

Продолжительность: 01:40:48
Формат: MKV
Видео: MPEG-4 AVC, 1280:720 (16:9), 4701 kbps
Аудио #1: русский, многоголосый закадровый [профессиональный], DTS 5.1, 1509 kbps
Аудио #2: английский, оригинал, AC3 2.0, 192 kbps

Код:

General
Unique ID                                : 221399899976173146482239824572236854858 (0xA69011D82D3DF5EB915F3816B31E764A)
Complete name                            : C:\MyTorrents\The Queen of Versailles BDrip 720p.mkv
Format                                   : Matroska
Format version                           : Version 4 / Version 2
File size                                : 4.51 GiB
Duration                                 : 1h 40mn
Overall bit rate                         : 6 400 Kbps
Encoded date                             : UTC 2013-06-23 02:45:17
Writing application                      : mkvmerge v6.2.0 ('Promised Land') built on Apr 28 2013 12:22:01
Writing library                          : libebml v1.3.0 + libmatroska v1.4.0

Video
ID                                       : 1
Format                                   : AVC
Format/Info                              : Advanced Video Codec
Format profile                           : High@L4.1
Format settings, CABAC                   : Yes
Format settings, ReFrames                : 5 frames
Codec ID                                 : V_MPEG4/ISO/AVC
Duration                                 : 1h 40mn
Bit rate                                 : 4 701 Kbps
Width                                    : 1 280 pixels
Height                                   : 720 pixels
Display aspect ratio                     : 16:9
Frame rate mode                          : Constant
Frame rate                               : 23.976 fps
Color space                              : YUV
Chroma subsampling                       : 4:2:0
Bit depth                                : 8 bits
Scan type                                : Progressive
Bits/(Pixel*Frame)                       : 0.213
Stream size                              : 3.22 GiB (71%)
Writing library                          : x264 core 128 r2216 198a7ea
Encoding settings                        : cabac=1 / ref=5 / deblock=1:0:0 / analyse=0x3:0x133 / me=umh / subme=7 / psy=1 / psy_rd=1.00:0.00 / mixed_ref=1 / me_range=16 / chroma_me=1 / trellis=1 / 8x8dct=1 / cqm=0 / deadzone=21,11 / fast_pskip=0 / chroma_qp_offset=-2 / threads=12 / lookahead_threads=2 / sliced_threads=0 / nr=0 / decimate=1 / interlaced=0 / bluray_compat=0 / constrained_intra=0 / bframes=3 / b_pyramid=2 / b_adapt=1 / b_bias=0 / direct=1 / weightb=1 / open_gop=0 / weightp=2 / keyint=250 / keyint_min=23 / scenecut=40 / intra_refresh=0 / rc_lookahead=40 / rc=2pass / mbtree=1 / bitrate=4701 / ratetol=1.0 / qcomp=0.60 / qpmin=0 / qpmax=69 / qpstep=4 / cplxblur=20.0 / qblur=0.5 / ip_ratio=1.40 / aq=1:1.00
Language                                 : English
Default                                  : Yes
Forced                                   : No

Audio #1
ID                                       : 2
Format                                   : DTS
Format/Info                              : Digital Theater Systems
Mode                                     : 16
Format settings, Endianness              : Big
Codec ID                                 : A_DTS
Duration                                 : 1h 40mn
Bit rate mode                            : Constant
Bit rate                                 : 1 509 Kbps
Channel(s)                               : 6 channels
Channel positions                        : Front: L C R, Side: L R, LFE
Sampling rate                            : 48.0 KHz
Bit depth                                : 24 bits
Compression mode                         : Lossy
Stream size                              : 1.06 GiB (24%)
Language                                 : English
Default                                  : No
Forced                                   : No

Audio #2
ID                                       : 3
Format                                   : AC-3
Format/Info                              : Audio Coding 3
Mode extension                           : CM (complete main)
Format settings, Endianness              : Big
Codec ID                                 : A_AC3
Duration                                 : 1h 40mn
Bit rate mode                            : Constant
Bit rate                                 : 192 Kbps
Channel(s)                               : 2 channels
Channel positions                        : Front: L R
Sampling rate                            : 48.0 KHz
Bit depth                                : 16 bits
Compression mode                         : Lossy
Stream size                              : 138 MiB (3%)
Language                                 : Russian
Default                                  : Yes
Forced                                   : No

Text
ID                                       : 4
Format                                   : UTF-8
Codec ID                                 : S_TEXT/UTF8
Codec ID/Info                            : UTF-8 Plain Text
Language                                 : English
Default                                  : No
Forced                                   : No
Семпл: http://multi-up.com/878133

picpicpic
Для увеличения картинки щелкните мышкой по превью

Этот торрент недоступен для скачивания без регистрации, однако доступен по публичной magnet-ссылке (источники с публичных трекеров). Перед использованием ссылки прочтите, пожалуйста Пользовательское соглашение, а также как можно дольше оставайтесь на раздаче! Для того, чтобы скачать сам торрент-файл (который видит больше источников), а также для того, чтобы поблагодарить релизера, вам необходимо зарегистрироваться. Если регистрироваться лень - вы можете также попробовать скачать релиз по нашим партнерским ссылкам ниже.

[underverse.su].t28668.torrent
Трекер: Зарегистрирован   [ 24.06.2013 10:35 ]  

Статус: проверено (by Паукан at 25.06.2013 06:54)
Поблагодарили: пока никто не поблагодарил...
Тип торрента: публичный - доступные источники с открытых трекеров: 
Размер: 4,51 GB (занимает 1,03 DVDR, для записи нужно 2 болванки DVDR/RW)
 
 

Чертёнок Пол:Муж

24-Июн-2013 11:34

Здеся Качество видео: BDRip 720p :twisted:

25-Июн-2013 06:53

Топик был перенесен из форума Документальные фильмы HQ в форум Личности


dj_maxx
 

Яндекс.Метрика powered by Sphinx


В Н И М А Н И Е
Сайт не распространяет и не хранит электронные версии произведений, а лишь бесплатно и без коммерческой выгоды (не требуя взамен платы,
SMS и т.д.) предоставляет доступ к создаваемому пользователями каталогу ссылок на торрент-файлы, которые содержат только списки хеш-сумм.
Убедительная просьба с жалобами обращаться напрямую к пользователю, разместившему торрент файл.

Вверх