Loading...
Error

Тёмный рыцарь: Трилогия / The Dark Knight: Trilogy (Кристофер Нолан) США [2005/2008/2012 г., Фантастика, боевик, триллер, криминал, BDRip 1080p]

Статистика раздачи
Размер:  50,59 GB   |    Зарегистрирован:  3 года 5 месяцев   |    Скачан:  13 раз
Сидов:  1  |  0 KB/s  ]   Личеров:  0  |  0 KB/s  ]

* - сиды/пиры с внешних источников

   
 
Автор Сообщение

nemos Пол:Муж

24-Июн-2013 08:53


Тёмный рыцарь: Трилогия / The Dark Knight: Trilogy


Год выпуска: 2005/2008/2012
Жанр: Фантастика, боевик, триллер, криминал
Страна: США
Режиссер: Кристофер Нолан
В ролях: Кристиан Бэйл, Том Харди, Энн Хэтэуэй, Джозеф Гордон-Левитт, Марион Котийяр, Гари Олдман, Морган Фриман, Майкл Кейн

Фантастическая трилогия о Бэтмене режиссера Кристофера Нолана создана по комиксам DC Comics.

Качество видео: BDRip [1080p]

Продолжительность: (1) 02:44:00 / (2) 02:32:00 / (3) 02:20:00
Формат: MKV
Аудио: Дублированный, Многоголосый
Бэтмен: Hачало / Batman Begins


Год выпуска: 2005
Жанр: Боевик, Фантастика, Триллер
Страна: США
Режиссер: Кристофер Нолан
В ролях: Кристиан Бэйл, Майкл Кейн, Лайам Нисон, Кэти Холмс, Гари Олдман, Киллиан Мерфи, Морган Фримен, Том Уилкинсон, Рутгер Хауэр, Кен Ватанабе, Марк Бун Джуниор
Сюжет фильма:
История о происхождении легенды Брюса Уэйна, юного наследника огромного состояния, потерявшего своих родителей. Покинув родной Готэм, он отправляется в путешествие по миру. Многочисленные преграды и лишения закаляют его характер, а мудрый наставник помогает вновь обрести смысл жизни. Легендарный герой, защитник слабых и борец с несправедливостью преображается у тебя на глазах. Вернувшись в Готэм, Бэтмен становится единственной преградой на пути у сил зла, готовых ввергнуть город во мрак беззакония…


Качество видео: BDRip

Продолжительность: 02:44:00
Формат: MKV
Видео: MPEG-4 AVC, 1920x1080, 13.0 Mbps
Аудио: английский, DTS 2.0, 1 510 kb/s
Аудио: русский, AC3 2.0, 448 kb/s , / многоголосый закадровый (профессиональный)

Код:

E:\С underverse-3 Фильмы\Тёмный рыцарь Трилогия.BDRip 1080p\Tемный рыцарь Возрождение легенды.2012.1080p.mkv
   General
      Unique ID : 221013311123011055218299192420381720246 (0xA6459D8ADAB12B64A10E3FCA52DF7EB6)
      Complete name : E:\С underverse-3 Фильмы\Тёмный рыцарь Трилогия.BDRip 1080p\Tемный рыцарь Возрождение легенды.2012.1080p.mkv
      Format : Matroska
      Format version : Version 2
      File size : 17.9 GiB
      Duration : 2h 44mn
      Overall bit rate : 15.6 Mbps
      Movie name : The Dark Knight Rises (2012) - Release for HDCLUB
      Encoded date : UTC 2012-11-21 19:53:21
      Writing application : mkvmerge v3.4.0 ('Rapunzel') сборка от May 15 2010 09:38:20
      Writing library : libebml v0.8.0 + libmatroska v0.9.0
   Video #1
      ID : 1
      Format : AVC
      Format/Info : Advanced Video Codec
      Format profile : High@L4.1
      Format settings, CABAC : Yes
      Format settings, ReFrames : 4 frames
      Codec ID : V_MPEG4/ISO/AVC
      Duration : 2h 44mn
      Bit rate : 13.0 Mbps
      Width : 1 920 pixels
      Height : 1 080 pixels
      Display aspect ratio : 16:9
      Frame rate mode : Constant
      Frame rate : 23.976 fps
      Color space : YUV
      Chroma subsampling : 4:2:0
      Bit depth : 8 bits
      Scan type : Progressive
      Bits/(Pixel*Frame) : 0.261
      Stream size : 14.6 GiB (81%)
      Writing library : x264 core 116 r2057 0ba8a9c
      Encoding settings : cabac=1 / ref=4 / deblock=1:-3:-3 / analyse=0x3:0x133 / me=umh / subme=10 / psy=1 / psy_rd=1.00:0.00 / mixed_ref=1 / me_range=32 / chroma_me=1 / trellis=2 / 8x8dct=1 / cqm=0 / deadzone=21,11 / fast_pskip=0 / chroma_qp_offset=-2 / threads=14 / sliced_threads=0 / nr=0 / decimate=0 / interlaced=0 / bluray_compat=0 / constrained_intra=0 / bframes=7 / b_pyramid=2 / b_adapt=2 / b_bias=0 / direct=3 / weightb=1 / open_gop=0 / weightp=2 / keyint=250 / keyint_min=23 / scenecut=40 / intra_refresh=0 / rc_lookahead=40 / rc=2pass / mbtree=0 / bitrate=13000 / ratetol=1.0 / qcomp=0.65 / qpmin=0 / qpmax=40 / qpstep=4 / cplxblur=20.0 / qblur=0.5 / vbv_maxrate=50000 / vbv_bufsize=50000 / nal_hrd=none / ip_ratio=1.25 / pb_ratio=1.25 / aq=1:0.67
      Language : English
      Default : No
      Forced : No
   Audio #2
      ID : 2
      Format : AC-3
      Format/Info : Audio Coding 3
      Mode extension : CM (complete main)
      Format settings, Endianness : Big
      Codec ID : A_AC3
      Duration : 2h 44mn
      Bit rate mode : Constant
      Bit rate : 448 Kbps
      Channel(s) : 6 channels
      Channel positions : Front: L C R, Side: L R, LFE
      Sampling rate : 48.0 KHz
      Bit depth : 16 bits
      Compression mode : Lossy
      Stream size : 527 MiB (3%)
      Title : Russian AC3 5.1 @ 448 kbps - DUB
      Language : Russian
      Default : Yes
      Forced : No
   Audio #3
      ID : 3
      Format : AC-3
      Format/Info : Audio Coding 3
      Mode extension : CM (complete main)
      Format settings, Endianness : Big
      Codec ID : A_AC3
      Duration : 2h 44mn
      Bit rate mode : Constant
      Bit rate : 448 Kbps
      Channel(s) : 6 channels
      Channel positions : Front: L C R, Side: L R, LFE
      Sampling rate : 48.0 KHz
      Bit depth : 16 bits
      Compression mode : Lossy
      Stream size : 527 MiB (3%)
      Title : Ukrainian AC3 5.1 @ 448 kbps - DUB
      Language : Ukrainian
      Default : No
      Forced : No
   Audio #4
      ID : 4
      Format : DTS
      Format/Info : Digital Theater Systems
      Codec ID : A_DTS
      Duration : 2h 44mn
      Bit rate mode : Constant
      Bit rate : 1 510 Kbps
      Channel(s) : 6 channels
      Channel positions : Front: L C R, Side: L R, LFE
      Sampling rate : 48.0 KHz
      Bit depth : 24 bits
      Compression mode : Lossy
      Delay relative to video : 11ms
      Stream size : 1.74 GiB (10%)
      Title : English DTS 5.1 @ 1510 kbps
      Language : English
      Default : No
      Forced : No
   Audio #5
      ID : 5
      Format : AC-3
      Format/Info : Audio Coding 3
      Format profile : Dolby Digital
      Mode extension : CM (complete main)
      Format settings, Endianness : Big
      Codec ID : A_AC3
      Duration : 2h 44mn
      Bit rate mode : Constant
      Bit rate : 192 Kbps
      Channel(s) : 2 channels
      Channel positions : Front: L R
      Sampling rate : 48.0 KHz
      Bit depth : 16 bits
      Compression mode : Lossy
      Stream size : 226 MiB (1%)
      Title : English AC3 2.0 @ 192 kbps - Commentary
      Language : English
      Default : No
      Forced : No
   Text #6
      ID : 6
      Format : UTF-8
      Codec ID : S_TEXT/UTF8
      Codec ID/Info : UTF-8 Plain Text
      Title : Russian - Forced
      Language : Russian
      Default : No
      Forced : No
   Text #7
      ID : 7
      Format : UTF-8
      Codec ID : S_TEXT/UTF8
      Codec ID/Info : UTF-8 Plain Text
      Title : Russian - Full
      Language : Russian
      Default : No
      Forced : No
   Text #8
      ID : 8
      Format : UTF-8
      Codec ID : S_TEXT/UTF8
      Codec ID/Info : UTF-8 Plain Text
      Title : English SDH
      Language : English
      Default : No
      Forced : No
   Text #9
      ID : 9
      Format : UTF-8
      Codec ID : S_TEXT/UTF8
      Codec ID/Info : UTF-8 Plain Text
      Title : English
      Language : English
      Default : No
      Forced : No
Семпл: http://multi-up.com/878350

picpicpicpicpicpicpicpicpicpicpicpic
Для увеличения картинки щелкните мышкой по превью
Tемный рыцарь / The Dark Knight


Год выпуска: 2008
Жанр: Боевик, Фантастика, Триллер
Страна: США
Режиссер: Кристофер Нолан
В ролях: Кристиан Бэйл, Хит Леджер, Аарон Экхарт, Морган Фриман, Гари Олдман, Майкл Кейн, Мэгги Джилленхол, Киллиан Мерфи
Сюжет фильма:
Бэтмен поднимает ставки в войне с криминалом. С помощью лейтенанта Джима Гордона и прокурора Харви Дента он намерен очистить улицы от преступности, отравляющей город. Сотрудничество оказывается эффективным, но скоро они обнаружат себя посреди хаоса, развязанного восходящим криминальным гением, известным испуганным горожанам под именем Джокер... …


Качество видео: BDRip

Продолжительность: 02:32:00
Формат: MKV
Видео: MPEG-4 AVC, 1920x1080, 10.2 Mbps
Аудио: английский, DTS 5.1, 1536 kb/s
Аудио: русский, AC3 5.1, 1 510kb/s , / многоголосый закадровый (профессиональный)

Код:

E:\С underverse-3 Фильмы\Тёмный рыцарь Трилогия.BDRip 1080p\Tемный рыцарь.2008.BDRip.1080p.mkv
   General
      Unique ID : 250159827435224787024938882635537261013 (0xBC3307BEBA4CEFF98D0498E9483B21D5)
      Complete name : E:\С underverse-3 Фильмы\Тёмный рыцарь Трилогия.BDRip 1080p\Tемный рыцарь.2008.BDRip.1080p.mkv
      Format : Matroska
      Format version : Version 2
      File size : 17.9 GiB
      Duration : 2h 32mn
      Overall bit rate : 16.8 Mbps
      Movie name : The Dark Knight (2008) BDRip 1080p
      Encoded date : UTC 2010-05-30 08:41:08
      Writing application : mkvmerge v3.4.0 ('Rapunzel') сборка от May 15 2010 09:38:20
      Writing library : libebml v0.8.0 + libmatroska v0.9.0
   Video #1
      ID : 1
      Format : AVC
      Format/Info : Advanced Video Codec
      Format profile : High@L4.1
      Format settings, CABAC : Yes
      Format settings, ReFrames : 4 frames
      Codec ID : V_MPEG4/ISO/AVC
      Duration : 2h 32mn
      Bit rate : 10.2 Mbps
      Width : 1 920 pixels
      Height : 1 080 pixels
      Display aspect ratio : 16:9
      Frame rate mode : Constant
      Frame rate : 23.976 fps
      Color space : YUV
      Chroma subsampling : 4:2:0
      Bit depth : 8 bits
      Scan type : Progressive
      Bits/(Pixel*Frame) : 0.204
      Stream size : 10.8 GiB (60%)
      Title : Release by stim_too
      Writing library : x264 core 96 r1613 81e75e9
      Encoding settings : cabac=1 / ref=4 / deblock=1:-2:-2 / analyse=0x3:0x113 / me=umh / subme=10 / psy=1 / psy_rd=1.00:0.00 / mixed_ref=1 / me_range=64 / chroma_me=1 / trellis=2 / 8x8dct=1 / cqm=0 / deadzone=21,11 / fast_pskip=0 / chroma_qp_offset=-2 / threads=12 / sliced_threads=0 / nr=0 / decimate=1 / interlaced=0 / constrained_intra=0 / bframes=9 / b_pyramid=2 / b_adapt=2 / b_bias=0 / direct=1 / weightb=1 / weightp=2 / keyint=250 / keyint_min=25 / scenecut=40 / intra_refresh=0 / rc_lookahead=40 / rc=crf / mbtree=0 / crf=20.0 / qcomp=0.80 / qpmin=10 / qpmax=51 / qpstep=4 / vbv_maxrate=50000 / vbv_bufsize=62500 / crf_max=0.0 / ip_ratio=1.40 / pb_ratio=1.30 / aq=1:1.00 / nal_hrd=none
      Language : Russian
      Default : No
      Forced : No
   Audio #2
      ID : 2
      Format : AC-3
      Format/Info : Audio Coding 3
      Mode extension : CM (complete main)
      Format settings, Endianness : Big
      Codec ID : A_AC3
      Duration : 2h 32mn
      Bit rate mode : Constant
      Bit rate : 448 Kbps
      Channel(s) : 6 channels
      Channel positions : Front: L C R, Side: L R, LFE
      Sampling rate : 48.0 KHz
      Bit depth : 16 bits
      Compression mode : Lossy
      Stream size : 488 MiB (3%)
      Title : AC3 5.1 448 kbps  RUS (DUB)
      Language : Russian
      Default : Yes
      Forced : No
   Audio #3
      ID : 3
      Format : AC-3
      Format/Info : Audio Coding 3
      Mode extension : CM (complete main)
      Format settings, Endianness : Big
      Codec ID : A_AC3
      Duration : 2h 32mn
      Bit rate mode : Constant
      Bit rate : 448 Kbps
      Channel(s) : 6 channels
      Channel positions : Front: L C R, Side: L R, LFE
      Sampling rate : 48.0 KHz
      Bit depth : 16 bits
      Compression mode : Lossy
      Stream size : 488 MiB (3%)
      Title : AC3 5.1 448 kbps RUS (MVO - Kravec)
      Language : Russian
      Default : No
      Forced : No
   Audio #4
      ID : 4
      Format : DTS
      Format/Info : Digital Theater Systems
      Codec ID : A_DTS
      Duration : 2h 32mn
      Bit rate mode : Constant
      Bit rate : 1 510 Kbps
      Channel(s) : 6 channels
      Channel positions : Front: L C R, Side: L R, LFE
      Sampling rate : 48.0 KHz
      Bit depth : 24 bits
      Compression mode : Lossy
      Stream size : 1.61 GiB (9%)
      Title : DTS 5.1 1536 kbps RUS (AVO - Goblin)
      Language : Russian
      Default : No
      Forced : No
   Audio #5
      ID : 5
      Format : DTS
      Format/Info : Digital Theater Systems
      Codec ID : A_DTS
      Duration : 2h 32mn
      Bit rate mode : Constant
      Bit rate : 1 510 Kbps
      Channel(s) : 6 channels
      Channel positions : Front: L C R, Side: L R, LFE
      Sampling rate : 48.0 KHz
      Bit depth : 24 bits
      Compression mode : Lossy
      Stream size : 1.61 GiB (9%)
      Title : DTS 5.1 1536 kbps RUS (AVO - Gavrilov)
      Language : Russian
      Default : No
      Forced : No
   Audio #6
      ID : 6
      Format : AC-3
      Format/Info : Audio Coding 3
      Mode extension : CM (complete main)
      Format settings, Endianness : Big
      Codec ID : A_AC3
      Duration : 2h 32mn
      Bit rate mode : Constant
      Bit rate : 448 Kbps
      Channel(s) : 6 channels
      Channel positions : Front: L C R, Side: L R, LFE
      Sampling rate : 48.0 KHz
      Bit depth : 16 bits
      Compression mode : Lossy
      Stream size : 488 MiB (3%)
      Title : AC3 5.1 448 kbps RUS (AVO - Serbin)
      Language : Russian
      Default : No
      Forced : No
   Audio #7
      ID : 7
      Format : AC-3
      Format/Info : Audio Coding 3
      Mode extension : CM (complete main)
      Format settings, Endianness : Big
      Codec ID : A_AC3
      Duration : 2h 32mn
      Bit rate mode : Constant
      Bit rate : 448 Kbps
      Channel(s) : 6 channels
      Channel positions : Front: L C R, Side: L R, LFE
      Sampling rate : 48.0 KHz
      Bit depth : 16 bits
      Compression mode : Lossy
      Stream size : 488 MiB (3%)
      Title : AC3 5.1 448 kbps UKR (DUB)
      Language : Ukrainian
      Default : No
      Forced : No
   Audio #8
      ID : 8
      Format : DTS
      Format/Info : Digital Theater Systems
      Codec ID : A_DTS
      Duration : 2h 32mn
      Bit rate mode : Constant
      Bit rate : 1 510 Kbps
      Channel(s) : 6 channels
      Channel positions : Front: L C R, Side: L R, LFE
      Sampling rate : 48.0 KHz
      Bit depth : 24 bits
      Compression mode : Lossy
      Stream size : 1.61 GiB (9%)
      Title : DTS 5.1 1536 kbps ENG
      Language : English
      Default : No
      Forced : No
   Text #9
      ID : 9
      Format : UTF-8
      Codec ID : S_TEXT/UTF8
      Codec ID/Info : UTF-8 Plain Text
      Title : Sub RUS (BD CEE)
      Language : Russian
      Default : Yes
      Forced : No
   Text #10
      ID : 10
      Format : UTF-8
      Codec ID : S_TEXT/UTF8
      Codec ID/Info : UTF-8 Plain Text
      Title : Sub RUS (Goblin)
      Language : Russian
      Default : No
      Forced : No
   Text #11
      ID : 11
      Format : UTF-8
      Codec ID : S_TEXT/UTF8
      Codec ID/Info : UTF-8 Plain Text
      Title : Sub ENG
      Language : English
      Default : No
      Forced : No
   Text #12
      ID : 12
      Format : UTF-8
      Codec ID : S_TEXT/UTF8
      Codec ID/Info : UTF-8 Plain Text
      Title : Sub UKR
      Language : Ukrainian
      Default : No
      Forced : No
Семпл: http://multi-up.com/878358

picpicpicpicpicpicpicpic
Для увеличения картинки щелкните мышкой по превью
Tемный рыцарь: Возрождение легенды / The Dark Knight Rises


Год выпуска: 2012
Жанр: Боевик, Фантастика, Триллер
Страна: США
Режиссер: Кристофер Нолан
В ролях: Кристиан Бэйл, Том Харди, Энн Хэтэуэй, Джозеф Гордон-Левитт, Марион Котийяр, Гари Олдман, Морган Фриман, Майкл Кейн, Мэтью Модайн, Бен Мендельсон
Сюжет фильма:
Восемь лет назад Бэтмен растворился в ночи, превратившись из героя в беглеца. Приняв на себя вину за смерть прокурора Харви Дента, Темный рыцарь пожертвовал всем. Вместе с комиссаром Гордоном они решили, что так будет лучше для всех. Пока преступность была раздавлена антикриминальным актом Дента, ложь действовала. Но с появлением хитрой воровки с загадочным прошлым всё меняется. Тем не менее, еще опаснее становится появление террориста Бэйна, чье лицо закрыто маской. Он разворачивает в Готэме чудовищную деятельность, вынуждая Брюса Уэйна выйти из импровизированного изгнания. Однако даже надев свой костюм, Бэтмен может проиграть Бэйну.


Качество видео: BDRip

Продолжительность: 02:20:00
Формат: MKV
Видео: MPEG-4 AVC, 1920x800, 11.1 Mbps
Аудио: английский, DTS 5.1, 1 510 Kbps
Аудио: русский, AC3 5.1, 640 Kbps , / многоголосый закадровый (профессиональный)

Код:

E:\С underverse-3 Фильмы\Тёмный рыцарь Трилогия.BDRip 1080p\Бэтмен Hачало.2005.BDRip.1080p.mkv
   General
      Unique ID : 204570489304713315244822452752025921764 (0x99E6D7D5FDA15B4C8373D9C1443C28E4)
      Complete name : E:\С underverse-3 Фильмы\Тёмный рыцарь Трилогия.BDRip 1080p\Бэтмен Hачало.2005.BDRip.1080p.mkv
      Format : Matroska
      Format version : Version 2
      File size : 14.8 GiB
      Duration : 2h 20mn
      Overall bit rate : 15.1 Mbps
      Movie name : Batman Begins (2005)
      Encoded date : UTC 2011-07-30 12:28:31
      Writing application : mkvmerge v4.6.0 ('Still Crazy After All These Years') сборка от Mar 10 2011 02:50:32
      Writing library : libebml v1.2.0 + libmatroska v1.1.0
      Attachment : Yes
   Video #1
      ID : 1
      Format : AVC
      Format/Info : Advanced Video Codec
      Format profile : High@L4.1
      Format settings, CABAC : Yes
      Format settings, ReFrames : 5 frames
      Muxing mode : Header stripping
      Codec ID : V_MPEG4/ISO/AVC
      Duration : 2h 20mn
      Bit rate : 11.1 Mbps
      Width : 1 920 pixels
      Height : 800 pixels
      Display aspect ratio : 2.40:1
      Frame rate mode : Constant
      Frame rate : 23.976 fps
      Color space : YUV
      Chroma subsampling : 4:2:0
      Bit depth : 8 bits
      Scan type : Progressive
      Bits/(Pixel*Frame) : 0.301
      Stream size : 10.5 GiB (71%)
      Writing library : x264 core 60 r901M 58d7d06
      Encoding settings : cabac=1 / ref=5 / deblock=1:-3:-3 / analyse=0x3:0x113 / me=umh / subme=6 / rdcmp=psy / brdo=1 / mixed_ref=1 / me_range=16 / chroma_me=1 / trellis=0 / 8x8dct=1 / cqm=2 / deadzone=6,4 / chroma_qp_offset=0 / threads=6 / nr=0 / decimate=0 / mbaff=0 / bframes=16 / b_pyramid=1 / b_adapt=1 / b_bias=0 / direct=1 / wpredb=1 / bime=1 / keyint=250 / keyint_min=25 / scenecut=40(pre) / rc=2pass / bitrate=11070 / ratetol=1.0 / rceq='blurCplx^(1-qComp)' / qcomp=1.00 / qpmin=10 / qpmax=51 / qpstep=4 / cplxblur=20.0 / qblur=0.5 / ip_ratio=1.40 / pb_ratio=1.30 / aq=2:1.00
      Language : English
      Default : Yes
      Forced : No
   Audio #2
      ID : 2
      Format : AC-3
      Format/Info : Audio Coding 3
      Mode extension : CM (complete main)
      Format settings, Endianness : Big
      Muxing mode : Header stripping
      Codec ID : A_AC3
      Duration : 2h 20mn
      Bit rate mode : Constant
      Bit rate : 640 Kbps
      Channel(s) : 6 channels
      Channel positions : Front: L C R, Side: L R, LFE
      Sampling rate : 48.0 KHz
      Bit depth : 16 bits
      Compression mode : Lossy
      Stream size : 641 MiB (4%)
      Title : Дубляж
      Language : Russian
      Default : Yes
      Forced : No
   Audio #3
      ID : 3
      Format : AC-3
      Format/Info : Audio Coding 3
      Mode extension : CM (complete main)
      Format settings, Endianness : Big
      Muxing mode : Header stripping
      Codec ID : A_AC3
      Duration : 2h 20mn
      Bit rate mode : Constant
      Bit rate : 384 Kbps
      Channel(s) : 6 channels
      Channel positions : Front: L C R, Side: L R, LFE
      Sampling rate : 48.0 KHz
      Bit depth : 16 bits
      Compression mode : Lossy
      Stream size : 385 MiB (3%)
      Title : Киномания
      Language : Russian
      Default : No
      Forced : No
   Audio #4
      ID : 4
      Format : AC-3
      Format/Info : Audio Coding 3
      Mode extension : CM (complete main)
      Format settings, Endianness : Big
      Muxing mode : Header stripping
      Codec ID : A_AC3
      Duration : 2h 20mn
      Bit rate mode : Constant
      Bit rate : 384 Kbps
      Channel(s) : 6 channels
      Channel positions : Front: L C R, Side: L R, LFE
      Sampling rate : 48.0 KHz
      Bit depth : 16 bits
      Compression mode : Lossy
      Stream size : 385 MiB (3%)
      Title : Tycoon
      Language : Russian
      Default : No
      Forced : No
   Audio #5
      ID : 5
      Format : AC-3
      Format/Info : Audio Coding 3
      Mode extension : CM (complete main)
      Format settings, Endianness : Big
      Muxing mode : Header stripping
      Codec ID : A_AC3
      Duration : 2h 20mn
      Bit rate mode : Constant
      Bit rate : 384 Kbps
      Channel(s) : 6 channels
      Channel positions : Front: L C R, Side: L R, LFE
      Sampling rate : 48.0 KHz
      Bit depth : 16 bits
      Compression mode : Lossy
      Stream size : 385 MiB (3%)
      Title : Гаврилов
      Language : Russian
      Default : No
      Forced : No
   Audio #6
      ID : 6
      Format : DTS
      Format/Info : Digital Theater Systems
      Muxing mode : Header stripping
      Codec ID : A_DTS
      Duration : 2h 20mn
      Bit rate mode : Constant
      Bit rate : 755 Kbps
      Channel(s) : 6 channels
      Channel positions : Front: L C R, Side: L R, LFE
      Sampling rate : 48.0 KHz
      Bit depth : 24 bits
      Compression mode : Lossy
      Delay relative to video : 11ms
      Stream size : 756 MiB (5%)
      Title : Королев
      Language : Russian
      Default : No
      Forced : No
   Audio #7
      ID : 7
      Format : DTS
      Format/Info : Digital Theater Systems
      Muxing mode : Header stripping
      Codec ID : A_DTS
      Duration : 2h 20mn
      Bit rate mode : Constant
      Bit rate : 1 510 Kbps
      Channel(s) : 6 channels
      Channel positions : Front: L C R, Side: L R, LFE
      Sampling rate : 48.0 KHz
      Bit depth : 24 bits
      Compression mode : Lossy
      Delay relative to video : 11ms
      Stream size : 1.48 GiB (10%)
      Title : Оригинал
      Language : English
      Default : No
      Forced : No
   Text #8
      ID : 8
      Format : UTF-8
      Codec ID : S_TEXT/UTF8
      Codec ID/Info : UTF-8 Plain Text
      Title : R5
      Language : Russian
      Default : No
      Forced : No
   Text #9
      ID : 9
      Format : UTF-8
      Codec ID : S_TEXT/UTF8
      Codec ID/Info : UTF-8 Plain Text
      Title : SDH
      Language : English
      Default : No
      Forced : No
Семпл: http://multi-up.com/878366

picpicpicpicpicpicpicpicpic
Для увеличения картинки щелкните мышкой по превью

Этот торрент доступен для скачивания без регистрации. Перед тем, как его скачать, прочтите, пожалуйста Пользовательское соглашение, а также как можно дольше оставайтесь на раздаче! Также вы можете выкладывать этот торрент или ссылку на него на других интернет-ресурсах, в том числе на торрент трекерах. Для получение более подробной информации о релизе, а также для того, чтобы поблагодарить релизера, вам необходимо зарегистрироваться.

[underverse.su].t28665.torrent
Трекер: Зарегистрирован   [ 24.06.2013 08:53 ]   [ торрент доступен для скачивания без регистрации ]

Статус: проверено (by Чертёнок at 24.06.2013 09:20)
Поблагодарили: 2 человека
Тип торрента: публичный - доступные источники с открытых трекеров: 
Размер: 50,59 GB (занимает 11,56 DVDR, для записи нужно 12 болванок DVDR/RW)
 
 
Похожие темы
Форум Тема Автор Торрент Отв. Посл. сооб.
Зарубежное кино [DVDRip, Low-Res HDRip, и т.д.] Темный рыцарь / The Dark Knight (Кристофер Нолан) [2008, Фантастика, боевик, триллер, криминал, BDRip-AVC] Dub (CEE) + Original (Eng) + Subs (Rus, Eng) Garnett
0 | 0

0 | 846

22

22.12.2012 18:00

Зарубежное кино [DVDRip, Low-Res HDRip, и т.д.] Темный рыцарь / The Dark Knight (Кристофер Нолан / Christopher Nolan) [2008 г., фантастика, боевик, триллер, криминал, BDRip-AVC] Dub + Original + MVO + AVO + VO garry
1 | 0

0 | 806

12

22.02.2014 20:40

Зарубежное кино HQ Темный рыцарь / The Dark Knight [IMAX] (Кристофер Нолан) [2008 г., фантастика, боевик, триллер, криминал, HDRip] (Rus, Ukr, Eng) HQ Underverse HQ Underverse
1 | 0

0 | 1699

48

27.07.2012 11:15

Зарубежное кино HQ Темный рыцарь: Возрождение легенды / The Dark Knight Rises (Кристофер Нолан) [2012 г., фантастика, боевик, триллер, драма, криминал, BDRip] Dub (Rus,Ukr) + Original + Sub (Rus,Eng) HQ Underverse HQ Underverse
1 | 0

5 | 1897

170

05.12.2012 17:50

Мультфильмы HQ Темный рыцарь: Возрождение легенды. Часть 1 / Batman: The Dark Knight Returns, Part 1 (Джей Олива) [2012 г., мультфильм, боевик, BDRip] Dub + Original + Subs (Rus,Eng) HQ Underverse HQ Underverse
1 | 0

0 | 1625

33

11.12.2012 20:57

Мультфильмы HQ Темный рыцарь: Возрождение легенды. Часть 2 / Batman: The Dark Knight Returns, Part 2 (Джей Олива) [2013 г., мультфильм, боевик, BDRip] Dub + Original HQ Underverse HQ Underverse
0 | 0

2 | 2048

22

13.02.2013 10:35

Зарубежные мультфильмы Темный рыцарь: Возрождение легенды. Часть 2 / Batman: The Dark Knight Returns, Part 2 (Джей Олива) [2013 г., мультфильм, боевик, HDRip] Dub + Eng 90ytr90
3 | 0

1 | 700

17

28.03.2013 11:54

Зарубежные мультфильмы Темный рыцарь: Возрождение легенды. Часть 2 / Batman: The Dark Knight Returns, Part 2 (Джей Олива) [2013 г., мультфильм, боевик, HDRip] Dub 90ytr90
1 | 0

0 | 641

6

17.01.2013 17:07

Зарубежное кино [DVD / HDDVD / BD / Remux] Темный рыцарь / The Dark Knight (Кристофер Нолан) [2008 г., фантастика, боевик, триллер, криминал, DVD-9] garry
1 | 0

0 | 1010

1

10.09.2012 11:47

Зарубежное кино [DVD / HDDVD / BD / Remux] Темный рыцарь / The Dark Knight (Кристофер Нолан / Christopher Nolan) [2008, США, боевик, приключения, драма, криминал, BDRemux 1080p] Dub + MVO + 3x AVO + 2x VO + Original eng + Sub rus, eng uzi2009
35 | 0

0 | 908

4

27.05.2014 11:48



Последний раз редактировалось: nemos (06.11.2014 13:26), всего редактировалось 1 раз

nemos Пол:Муж

03-Окт-2013 07:01

Фильм который был выложен и зарегистрирован более двух месяцев назад буду раздавать с 23.00ч до 06.00ч утра ( вина в этом немоя, а пользователей которые неподдерживают раздачу)

Яндекс.Метрика powered by Sphinx


В Н И М А Н И Е
Сайт не распространяет и не хранит электронные версии произведений, а лишь бесплатно и без коммерческой выгоды (не требуя взамен платы,
SMS и т.д.) предоставляет доступ к создаваемому пользователями каталогу ссылок на торрент-файлы, которые содержат только списки хеш-сумм.
Убедительная просьба с жалобами обращаться напрямую к пользователю, разместившему торрент файл.

Вверх