Loading...
Error

Обогнавшие время. Ученые России - академик Губкин [2012 г., документальный, биография, TVRip]

Статистика раздачи
Размер:  380 MB   |    Зарегистрирован:  3 года 5 месяцев   |    Скачан:  1 раз

Полного источника не было: 1 год 9 месяцев

Сидов:  0  |  0 KB/s  ]   Личеров:  0  |  0 KB/s  ]

* - сиды/пиры с внешних источников

   
 
Автор Сообщение

матроскин Пол:Муж

23-Июн-2013 14:58

Обогнавшие время. Ученые России - академик Губкин


Год выпуска: 2012
Жанр: документальный, биография
Страна: Россия
Режиссер: Марина Исаева
Выпущено: студия "Форте-Медиа"
Сюжет фильма:
В истории геологии был уникальный человек – ученый, о котором говорили: «У него дар видеть сквозь землю». Страстный, дерзкий, неутомимый, ставший гуру отечественной геологии. Академика Ивана Михайловича Губкина часто называют «Ломоносовым 20-ого века». Его поистине гениальное предвидение намного опередило свое время. Он, действительно, предсказал открытия многих крупнейших нефтегазовых месторождений в Баку, нынешней Башкирии, в Западной Сибири и др. В своих воспоминаниях Губкин потом напишет: «Я дал себе слово работать только на Россию». И этому слову он остался верен. Он не работал ни в одной частной корпорации, он не работал ни на одного частного промышленника. Человек в простых круглых очках не уставал повторять: «Недра не подведут, если не подведут люди».
Качество видео: TVRip

Продолжительность: 00:33:11
Формат: avi
Видео: XviD, 640x496, 1461 kbps
Аудио: русский, оригинал, MP3 2.0, 128 kbps

Код:

General
Complete name                    : C:\Users\Security\Desktop\Губкин академик.avi
Format                           : AVI
Format/Info                      : Audio Video Interleave
File size                        : 380 MiB
Duration                         : 33mn 11s
Overall bit rate                 : 1 599 Kbps
Writing application              : VirtualDubMod 1.5.10.3 | www.virtualdub-fr.org || (build 2550/release)
Writing library                  : VirtualDubMod build 2550/release

Video
ID                               : 0
Format                           : MPEG-4 Visual
Format profile                   : Streaming Video@L1
Format settings, BVOP            : Yes
Format settings, QPel            : No
Format settings, GMC             : No warppoints
Format settings, Matrix          : Default (MPEG)
Codec ID                         : XVID
Codec ID/Hint                    : XviD
Duration                         : 33mn 11s
Bit rate                         : 1 461 Kbps
Width                            : 640 pixels
Height                           : 496 pixels
Display aspect ratio             : 1.290
Frame rate                       : 25.000 fps
Resolution                       : 24 bits
Colorimetry                      : 4:2:0
Scan type                        : Progressive
Bits/(Pixel*Frame)               : 0.184
Stream size                      : 347 MiB (91%)
Writing library                  : XviD 1.2.1 (UTC 2008-12-04)

Audio
ID                               : 1
Format                           : MPEG Audio
Format version                   : Version 1
Format profile                   : Layer 3
Codec ID                         : 55
Codec ID/Hint                    : MP3
Duration                         : 33mn 11s
Bit rate mode                    : Constant
Bit rate                         : 128 Kbps
Channel(s)                       : 2 channels
Sampling rate                    : 48.0 KHz
Resolution                       : 16 bits
Stream size                      : 30.4 MiB (8%)
Alignment                        : Aligned on interleaves
Interleave, duration             : 40 ms (1.00 video frame)
Interleave, preload duration     : 504 ms
Writing library                  : LAME3.99r
Encoding settings                : -m s -V 4 -q 2 -lowpass 17 -b 128

picpicpicpicpicpic
Для увеличения картинки щелкните мышкой по превью

Этот торрент недоступен для скачивания без регистрации, однако доступен по публичной magnet-ссылке (источники с публичных трекеров). Перед использованием ссылки прочтите, пожалуйста Пользовательское соглашение, а также как можно дольше оставайтесь на раздаче! Для того, чтобы скачать сам торрент-файл (который видит больше источников), а также для того, чтобы поблагодарить релизера, вам необходимо зарегистрироваться. Если регистрироваться лень - вы можете также попробовать скачать релиз по нашим партнерским ссылкам ниже.

[underverse.su].t28647.torrent
Трекер: Зарегистрирован   [ 23.06.2013 14:58 ]  

Статус: проверено (by матроскин at 23.06.2013 15:00)
Поблагодарили: 1 человек
Тип торрента: публичный - доступные источники с открытых трекеров: 
Размер: 380 MB (занимает 0,08 DVDR, для записи нужно 1 болванка DVDR/RW)
 
 
Похожие темы
Форум Тема Автор Торрент Отв. Посл. сооб.
Личности Обогнавшие время. Ученые России - Академик Зелинский. [2012 г., документальный, TVRip] матроскин
0 | 0

1 | 627

12

08.06.2013 06:57

матроскин Пол:Муж

23-Июн-2013 14:59


Яндекс.Метрика powered by Sphinx


В Н И М А Н И Е
Сайт не распространяет и не хранит электронные версии произведений, а лишь бесплатно и без коммерческой выгоды (не требуя взамен платы,
SMS и т.д.) предоставляет доступ к создаваемому пользователями каталогу ссылок на торрент-файлы, которые содержат только списки хеш-сумм.
Убедительная просьба с жалобами обращаться напрямую к пользователю, разместившему торрент файл.

Вверх