Loading...
Error

Любимые актеры - Сергей Никоненко [2013 г., документальный, биография, TVRip]

Статистика раздачи
Размер:  331 MB   |    Зарегистрирован:  3 года 5 месяцев   |    Скачан:  2 раза

Полного источника не было: 1 год 7 месяцев

Сидов:  0  |  0 KB/s  ]   Личеров:  0  |  0 KB/s  ]

* - сиды/пиры с внешних источников

   
 
Автор Сообщение

матроскин Пол:Муж

23-Июн-2013 09:59

Любимые актеры - Сергей Никоненко


Год выпуска: 2013
Жанр: документальный, биография
Страна: Россия
Режиссер: Андрей Зенин
Выпущено: Телеканал "Мир"
Сюжет фильма:
Любимые актеры» — это фильм-портрет. Авторский взгляд на судьбу известного артиста. Ведущий программы — «коллекционер» актерских баек и историй. Нам интересен не только творческий путь актера, но и его личная жизнь
Качество видео: TVRip

Продолжительность: 00:29:30
Формат: avi
Видео: XviD, 688x512, 1428 kbps
Аудио: русский, оригинал, MP3 2.0, 128 kbps

Код:

General
Complete name                    : C:\Users\Security\Desktop\Никоненко.avi
Format                           : AVI
Format/Info                      : Audio Video Interleave
File size                        : 331 MiB
Duration                         : 29mn 30s
Overall bit rate                 : 1 567 Kbps
Writing application              : VirtualDubMod 1.5.10.3 | www.virtualdub-fr.org || (build 2550/release)
Writing library                  : VirtualDubMod build 2550/release

Video
ID                               : 0
Format                           : MPEG-4 Visual
Format profile                   : Streaming Video@L1
Format settings, BVOP            : Yes
Format settings, QPel            : No
Format settings, GMC             : No warppoints
Format settings, Matrix          : Default (MPEG)
Codec ID                         : XVID
Codec ID/Hint                    : XviD
Duration                         : 29mn 30s
Bit rate                         : 1 429 Kbps
Width                            : 688 pixels
Height                           : 512 pixels
Display aspect ratio             : 4/3
Frame rate                       : 25.000 fps
Resolution                       : 24 bits
Colorimetry                      : 4:2:0
Scan type                        : Progressive
Bits/(Pixel*Frame)               : 0.162
Stream size                      : 302 MiB (91%)
Writing library                  : XviD 1.2.1 (UTC 2008-12-04)

Audio
ID                               : 1
Format                           : MPEG Audio
Format version                   : Version 1
Format profile                   : Layer 3
Codec ID                         : 55
Codec ID/Hint                    : MP3
Duration                         : 29mn 30s
Bit rate mode                    : Constant
Bit rate                         : 128 Kbps
Channel(s)                       : 2 channels
Sampling rate                    : 48.0 KHz
Resolution                       : 16 bits
Stream size                      : 27.0 MiB (8%)
Alignment                        : Aligned on interleaves
Interleave, duration             : 40 ms (1.00 video frame)
Interleave, preload duration     : 504 ms
Writing library                  : LAME3.99r
Encoding settings                : -m s -V 4 -q 2 -lowpass 17 -b 128

picpicpicpicpicpic
Для увеличения картинки щелкните мышкой по превью

Этот торрент недоступен для скачивания без регистрации, однако доступен по публичной magnet-ссылке (источники с публичных трекеров). Перед использованием ссылки прочтите, пожалуйста Пользовательское соглашение, а также как можно дольше оставайтесь на раздаче! Для того, чтобы скачать сам торрент-файл (который видит больше источников), а также для того, чтобы поблагодарить релизера, вам необходимо зарегистрироваться. Если регистрироваться лень - вы можете также попробовать скачать релиз по нашим партнерским ссылкам ниже.

[underverse.su].t28638.torrent
Трекер: Зарегистрирован   [ 23.06.2013 09:59 ]  

Статус: проверено (by матроскин at 23.06.2013 10:01)
Поблагодарили: 1 человек
Тип торрента: публичный - доступные источники с открытых трекеров: 
Размер: 331 MB (занимает 0,07 DVDR, для записи нужно 1 болванка DVDR/RW)
 
 
Похожие темы
Форум Тема Автор Торрент Отв. Посл. сооб.
Личности Любимые актеры. Татьяна Пельтцер. [2013 г., документальный, биография, TVRip] матроскин
0 | 0

1 | 1023

8

20.05.2013 13:55

Личности Любимые актеры. Георгий Бурков. [2013 г., документальный, биография, TVRip] матроскин
0 | 0

1 | 631

3

05.06.2013 17:11

Личности Любимые актеры. Наталья Гундарева (Андрей Зенин) [2013 г., документальный, биография, искусство, SatRip] ARI71
0 | 0

0 | 190

1

07.08.2016 08:30

матроскин Пол:Муж

23-Июн-2013 10:01


Яндекс.Метрика powered by Sphinx


В Н И М А Н И Е
Сайт не распространяет и не хранит электронные версии произведений, а лишь бесплатно и без коммерческой выгоды (не требуя взамен платы,
SMS и т.д.) предоставляет доступ к создаваемому пользователями каталогу ссылок на торрент-файлы, которые содержат только списки хеш-сумм.
Убедительная просьба с жалобами обращаться напрямую к пользователю, разместившему торрент файл.

Вверх