Loading...
Error

Любовь Полищук. Женщина - праздник [2009 г., документальный, биография, TVRip]

Статистика раздачи
Размер:  623 MB   |    Зарегистрирован:  3 года 5 месяцев   |    Скачан:  7 раз

Полного источника не было: 11 месяцев

Сидов:  0  |  0 KB/s  ]   Личеров:  0  |  0 KB/s  ]

* - сиды/пиры с внешних источников

   
 
Автор Сообщение

матроскин Пол:Муж

20-Июн-2013 11:12

Любовь Полищук. Женщина - праздник


Год выпуска: 2009
Жанр: документальный, биография
Страна: Россия
Режиссер: Ирина Фирсова
Сюжет фильма:
Страна узнала Любовь Полищук 12 января 1978 года. В этот вечер по Центральному телевидению шла премьера фильма Марка Захарова "12 стульев". Танцевальный дуэт Любови Полищук с Андреем Мироновым запомнился всем. Талант Полищук нельзя было не заметить. Невероятно красивая, роковая, неунывающая, интригующая, отчаянная, азартная. В главной роли или в эпизоде она запоминалась сразу и навсегда... Вот уже больше двух лет нет с нами рядом любимой актрисы, но близкие и друзья до сих пор говорят о ней в настоящем времени. А когда рассказывают, то тут же начинают улыбаться. Потому что Любовь Полищук была не просто "Любка-артистка", а "женщина-праздник"...
Качество видео: TVRip

Продолжительность: 00:51:13
Формат: avi
Видео: XviD, 704x400, 1499 kbps
Аудио: русский, оригинал, AC3 2.0, 192 kbps

Код:

General
Complete name                    : C:\Users\Security\Desktop\Любовь Полищук. Женщина-праздник.avi
Format                           : AVI
Format/Info                      : Audio Video Interleave
File size                        : 623 MiB
Duration                         : 51mn 13s
Overall bit rate                 : 1 701 Kbps
Writing application              : VirtualDubMod 1.5.10.3 | www.virtualdub-fr.org || (build 2550/release)
Writing library                  : VirtualDubMod build 2550/release

Video
ID                               : 0
Format                           : MPEG-4 Visual
Format profile                   : Streaming Video@L1
Format settings, BVOP            : Yes
Format settings, QPel            : No
Format settings, GMC             : No warppoints
Format settings, Matrix          : Default (H.263)
Muxing mode                      : Packed bitstream
Codec ID                         : XVID
Codec ID/Hint                    : XviD
Duration                         : 51mn 13s
Bit rate                         : 1 499 Kbps
Width                            : 704 pixels
Height                           : 400 pixels
Display aspect ratio             : 16/9
Frame rate                       : 25.000 fps
Resolution                       : 24 bits
Colorimetry                      : 4:2:0
Scan type                        : Progressive
Bits/(Pixel*Frame)               : 0.213
Stream size                      : 549 MiB (88%)
Writing library                  : XviD 1.2.1 (UTC 2008-12-04)

Audio
ID                               : 1
Format                           : AC-3
Format/Info                      : Audio Coding 3
Codec ID                         : 2000
Duration                         : 51mn 13s
Bit rate mode                    : Constant
Bit rate                         : 192 Kbps
Channel(s)                       : 2 channels
Channel positions                : L R
Sampling rate                    : 48.0 KHz
Stream size                      : 70.3 MiB (11%)
Alignment                        : Split accross interleaves
Interleave, duration             : 40 ms (1.00 video frame)
Interleave, preload duration     : 500 ms

picpicpicpicpicpic
Для увеличения картинки щелкните мышкой по превью

Этот торрент недоступен для скачивания без регистрации, однако доступен по публичной magnet-ссылке (источники с публичных трекеров). Перед использованием ссылки прочтите, пожалуйста Пользовательское соглашение, а также как можно дольше оставайтесь на раздаче! Для того, чтобы скачать сам торрент-файл (который видит больше источников), а также для того, чтобы поблагодарить релизера, вам необходимо зарегистрироваться. Если регистрироваться лень - вы можете также попробовать скачать релиз по нашим партнерским ссылкам ниже.

[underverse.su].t28570.torrent
Трекер: Зарегистрирован   [ 20.06.2013 11:12 ]  

Статус: проверено (by матроскин at 20.06.2013 11:14)
Поблагодарили: 1 человек
Тип торрента: публичный - доступные источники с открытых трекеров: 
Размер: 623 MB (занимает 0,14 DVDR, для записи нужно 1 болванка DVDR/RW)
 
 
Похожие темы
Форум Тема Автор Торрент Отв. Посл. сооб.
Кулинария Любовь Поливалина - 500 рецептов старого трактирщика [2003 г., Кулинария, PDF] RUS vvmalysh
37 | 0

0 | 290

6

15.08.2015 04:50

матроскин Пол:Муж

20-Июн-2013 11:14


Яндекс.Метрика powered by Sphinx


В Н И М А Н И Е
Сайт не распространяет и не хранит электронные версии произведений, а лишь бесплатно и без коммерческой выгоды (не требуя взамен платы,
SMS и т.д.) предоставляет доступ к создаваемому пользователями каталогу ссылок на торрент-файлы, которые содержат только списки хеш-сумм.
Убедительная просьба с жалобами обращаться напрямую к пользователю, разместившему торрент файл.

Вверх