Loading...
Error

Тайны мира с Анной Чапман - Разоблачение. Последний рубеж [2013 г., документальный, TVRip]

Статистика раздачи
Размер:  562 MB   |    Зарегистрирован:  3 года 5 месяцев   |    Скачан:  5 раз

Полного источника не было: 2 года

Сидов:  0  |  0 KB/s  ]   Личеров:  0  |  0 KB/s  ]

* - сиды/пиры с внешних источников

   
 
Автор Сообщение

матроскин Пол:Муж

20-Июн-2013 08:03

Тайны мира с Анной Чапман - Разоблачение. Последний рубеж


Год выпуска: 2013
Жанр: документальный
Страна: Россия
Выпущено: Телеканал РЕН-ТВ
Сюжет фильма:
В 1992 году после развала Советского Союза соратник Джорджа Буша американский философ японского происхождения Френсис Фукуяма выдвинул концепцию о конце политической истории мира: капиталистическая модель общества навсегда победила все остальные! Два десятилетия прошедшие с тех пор показали, что Фукуяма жестоко ошибался...
Качество видео: TVRip

Продолжительность: 00:48:00
Формат: avi
Видео: DivX 5, 704x384, 1498 kbps
Аудио: русский, оригинал, MP3 2.0, 128 kbps

Код:

General
Complete name                    : C:\Users\Security\Desktop\Тыйны мира.avi
Format                           : AVI
Format/Info                      : Audio Video Interleave
File size                        : 562 MiB
Duration                         : 48mn 0s
Overall bit rate                 : 1 636 Kbps
Writing application              : VirtualDubMod 1.5.10.2 (build 2540/release)
Writing library                  : VirtualDub build 29808/release

Video
ID                               : 0
Format                           : MPEG-4 Visual
Format settings, BVOP            : No
Format settings, QPel            : No
Format settings, GMC             : No warppoints
Format settings, Matrix          : Default (H.263)
Codec ID                         : DX50
Codec ID/Hint                    : DivX 5
Duration                         : 48mn 0s
Bit rate                         : 1 499 Kbps
Width                            : 704 pixels
Height                           : 384 pixels
Display aspect ratio             : 16/9
Frame rate                       : 25.000 fps
Resolution                       : 24 bits
Colorimetry                      : 4:2:0
Scan type                        : Progressive
Bits/(Pixel*Frame)               : 0.222
Stream size                      : 515 MiB (92%)
Writing library                  : DivX 6.8.5

Audio
ID                               : 1
Format                           : MPEG Audio
Format version                   : Version 1
Format profile                   : Layer 3
Codec ID                         : 55
Codec ID/Hint                    : MP3
Duration                         : 48mn 0s
Bit rate mode                    : Constant
Bit rate                         : 128 Kbps
Channel(s)                       : 2 channels
Sampling rate                    : 48.0 KHz
Resolution                       : 16 bits
Stream size                      : 43.9 MiB (8%)
Alignment                        : Aligned on interleaves
Interleave, duration             : 40 ms (1.00 video frame)
Interleave, preload duration     : 504 ms
Writing library                  : LAME3.90.3

picpicpicpicpicpic
Для увеличения картинки щелкните мышкой по превью

Этот торрент недоступен для скачивания без регистрации, однако доступен по публичной magnet-ссылке (источники с публичных трекеров). Перед использованием ссылки прочтите, пожалуйста Пользовательское соглашение, а также как можно дольше оставайтесь на раздаче! Для того, чтобы скачать сам торрент-файл (который видит больше источников), а также для того, чтобы поблагодарить релизера, вам необходимо зарегистрироваться. Если регистрироваться лень - вы можете также попробовать скачать релиз по нашим партнерским ссылкам ниже.

[underverse.su].t28563.torrent
Трекер: Зарегистрирован   [ 20.06.2013 08:03 ]  

Статус: проверено (by матроскин at 20.06.2013 08:04)
Поблагодарили: 1 человек
Тип торрента: публичный - доступные источники с открытых трекеров: 
Размер: 562 MB (занимает 0,13 DVDR, для записи нужно 1 болванка DVDR/RW)
 
 
Похожие темы
Форум Тема Автор Торрент Отв. Посл. сооб.
Научно-популярные фильмы Тайны мира с Анной Чапман / (cерии 1-114) [2011-2013 г., Документальный, Научно-популярный, SATRip] Чертёнок
0 | 0

0 | 2467

3

12.10.2013 01:21

матроскин Пол:Муж

20-Июн-2013 08:04

12-Окт-2013 01:29

Топик был перенесен из форума Другие фильмы в форум Научно-популярные фильмы


Чертёнок
 

Яндекс.Метрика powered by Sphinx


В Н И М А Н И Е
Сайт не распространяет и не хранит электронные версии произведений, а лишь бесплатно и без коммерческой выгоды (не требуя взамен платы,
SMS и т.д.) предоставляет доступ к создаваемому пользователями каталогу ссылок на торрент-файлы, которые содержат только списки хеш-сумм.
Убедительная просьба с жалобами обращаться напрямую к пользователю, разместившему торрент файл.

Вверх