Loading...
Error

Война Жозефа Котина [2008 г., документальный, военный, TVRip]

Статистика раздачи
Размер:  258 MB   |    Зарегистрирован:  3 года 5 месяцев   |    Скачан:  12 раз
Сидов:  2  |  0 KB/s  ]   Личеров:  0  |  0 KB/s  ]

* - сиды/пиры с внешних источников

   
 
Автор Сообщение

матроскин Пол:Муж

20-Июн-2013 06:35

Война Жозефа Котина


Год выпуска: 2008
Жанр: документальный, военный
Страна: Россия
Режиссер: Алексей Олиферук
Выпущено: Телеканал "Культура"
Сюжет фильма:
10 марта 2008 года – 100 лет со дня рождения Жозефа Яковлевича Котина (1908-1979). Талантливый инженер, конструктор тяжелых танков Жозеф Котин с 1937 года руководил конструкторским бюро знаменитого "Танкограда" – Кировского завода, эвакуированного в Челябинск из блокадного Ленинграда. Под руководством Котина были разработаны тяжелые танки КВ, легендарные ИС, самоходные артиллерийские установки ИСУ-122 и ИСУ-152. Он создавал оружие Победы. «Для конструктора нет разницы между военным временем и мирным, - говорит Альберт Дзявго, конструктор Кировского завода, - он все время находится в состоянии войны». После войны конструкторское бюро Котина участвовало в разработках специальных гусеничных машин для полярников, передвижных атомных станций, первого Лунохода, трактора К-700.
Качество видео: TVRip

Продолжительность: 00:26:01
Формат: avi
Видео: DivX 5, 640x480, 1247 kbps
Аудио: русский, оригинал, MP3 2.0, 128 kbps

Код:

General
Complete name                    : C:\Users\Security\Desktop\Война жезефа котина.avi
Format                           : AVI
Format/Info                      : Audio Video Interleave
File size                        : 258 MiB
Duration                         : 26mn 1s
Overall bit rate                 : 1 387 Kbps
Writing library                  : MPlayer

Video
ID                               : 0
Format                           : MPEG-4 Visual
Format profile                   : Simple@L1
Format settings, BVOP            : No
Format settings, QPel            : No
Format settings, GMC             : No warppoints
Format settings, Matrix          : Default (H.263)
Codec ID                         : DX50
Codec ID/Hint                    : DivX 5
Duration                         : 26mn 1s
Bit rate                         : 1 247 Kbps
Width                            : 640 pixels
Height                           : 480 pixels
Display aspect ratio             : 4/3
Frame rate                       : 25.000 fps
Resolution                       : 24 bits
Colorimetry                      : 4:2:0
Scan type                        : Interlaced
Scan order                       : Top Field First
Bits/(Pixel*Frame)               : 0.162
Stream size                      : 232 MiB (90%)
Writing library                  : Lavc51.44.0

Audio
ID                               : 1
Format                           : MPEG Audio
Format version                   : Version 1
Format profile                   : Layer 3
Codec ID                         : 55
Codec ID/Hint                    : MP3
Duration                         : 26mn 1s
Bit rate mode                    : Constant
Bit rate                         : 128 Kbps
Channel(s)                       : 2 channels
Sampling rate                    : 44.1 KHz
Resolution                       : 16 bits
Stream size                      : 23.8 MiB (9%)
Alignment                        : Aligned on interleaves
Interleave, duration             : 26 ms (0.65 video frame)
Interleave, preload duration     : 809 ms
Writing library                  : LAME3.97Є

picpicpicpicpicpic
Для увеличения картинки щелкните мышкой по превью

Этот торрент недоступен для скачивания без регистрации, однако доступен по публичной magnet-ссылке (источники с публичных трекеров). Перед использованием ссылки прочтите, пожалуйста Пользовательское соглашение, а также как можно дольше оставайтесь на раздаче! Для того, чтобы скачать сам торрент-файл (который видит больше источников), а также для того, чтобы поблагодарить релизера, вам необходимо зарегистрироваться. Если регистрироваться лень - вы можете также попробовать скачать релиз по нашим партнерским ссылкам ниже.

[underverse.su].t28555.torrent
Трекер: Зарегистрирован   [ 20.06.2013 06:35 ]  

Статус: проверено (by матроскин at 20.06.2013 06:38)
Поблагодарили: 3 человека
Тип торрента: публичный - доступные источники с открытых трекеров: 
Размер: 258 MB (занимает 0,06 DVDR, для записи нужно 1 болванка DVDR/RW)
 
 

матроскин Пол:Муж

20-Июн-2013 06:37

Качайте и смотрите интересное документальное кино

Hranitel Пол:Муж

01-Июл-2013 10:27

Прекрасный фильм! :good: Всем советую. Здесь показана настоящая мощь нашей Великой Страны Советов. Спасибо Матроскину!

Яндекс.Метрика powered by Sphinx


В Н И М А Н И Е
Сайт не распространяет и не хранит электронные версии произведений, а лишь бесплатно и без коммерческой выгоды (не требуя взамен платы,
SMS и т.д.) предоставляет доступ к создаваемому пользователями каталогу ссылок на торрент-файлы, которые содержат только списки хеш-сумм.
Убедительная просьба с жалобами обращаться напрямую к пользователю, разместившему торрент файл.

Вверх