Loading...
Error

Анна Герман. Судьба и песни [1988 г., документальный, биография, TVRip]

Статистика раздачи
Размер:  647 MB   |    Зарегистрирован:  3 года 5 месяцев   |    Скачан:  8 раз

Полного источника не было: 4 месяца 24 дня

Сидов:  0  |  0 KB/s  ]   Личеров:  0  |  0 KB/s  ]

* - сиды/пиры с внешних источников

   
 
Автор Сообщение

матроскин Пол:Муж

17-Июн-2013 17:20

Анна Герман. Судьба и песни


Год выпуска: 1988
Жанр: документальный, биография
Страна: СССР
Режиссер: Александр Жигарев
Выпущено: Телеканал "Время"
Сюжет фильма:
На взлёте карьеры в 1967 она попадает в автокатастрофу. Четыре года реабилитации — ей заново приходится учиться ходить, говорить, петь... Первой песней после возвращения на сцену стала «Надежда» Александры Пахмутовой и Николая Добронравова. В Польше для неё не нашлось своего автора, а в России для неё пишут самые именитые композиторы. В 70-х свои лучшие песни споёт на русском языке. Многие польские звёзды и сейчас не могут ей этого простить. В фильме — воспоминания Александры Пахмутовой, Николая Добронравова, Евгения Матвеева и, конечно, песни в исполнении Анны Герман — «Танцующие Эвридики», «Эхо любви», «Надежда», «Когда цвели сады», «Гори, гори моя звезда» и др.
Качество видео: TVRip

Продолжительность: 00:54:40
Формат: avi
Видео: XviD, 672x528, 1453 kbps
Аудио: русский, оригинал, AC3 2.0, 192 kbps

Код:

General
Complete name                    : C:\Users\Security\Desktop\АННА ГЕРМАН. СУДЬБА И ПЕСНИ.avi
Format                           : AVI
Format/Info                      : Audio Video Interleave
File size                        : 647 MiB
Duration                         : 54mn 40s
Overall bit rate                 : 1 655 Kbps
Writing application              : VirtualDubMod 1.5.10.3 | www.virtualdub-fr.org || (build 2550/release)
Writing library                  : VirtualDubMod build 2550/release

Video
ID                               : 0
Format                           : MPEG-4 Visual
Format profile                   : Streaming Video@L1
Format settings, BVOP            : Yes
Format settings, QPel            : No
Format settings, GMC             : No warppoints
Format settings, Matrix          : Default (H.263)
Muxing mode                      : Packed bitstream
Codec ID                         : XVID
Codec ID/Hint                    : XviD
Duration                         : 54mn 40s
Bit rate                         : 1 454 Kbps
Width                            : 672 pixels
Height                           : 528 pixels
Display aspect ratio             : 1.273
Frame rate                       : 25.000 fps
Resolution                       : 24 bits
Colorimetry                      : 4:2:0
Scan type                        : Progressive
Bits/(Pixel*Frame)               : 0.164
Stream size                      : 568 MiB (88%)
Writing library                  : XviD 1.2.1 (UTC 2008-12-04)

Audio
ID                               : 1
Format                           : AC-3
Format/Info                      : Audio Coding 3
Codec ID                         : 2000
Duration                         : 54mn 40s
Bit rate mode                    : Constant
Bit rate                         : 192 Kbps
Channel(s)                       : 2 channels
Channel positions                : L R
Sampling rate                    : 48.0 KHz
Stream size                      : 75.1 MiB (12%)
Alignment                        : Split accross interleaves
Interleave, duration             : 40 ms (1.00 video frame)
Interleave, preload duration     : 500 ms

picpicpicpicpicpic
Для увеличения картинки щелкните мышкой по превью

Этот торрент недоступен для скачивания без регистрации, однако доступен по публичной magnet-ссылке (источники с публичных трекеров). Перед использованием ссылки прочтите, пожалуйста Пользовательское соглашение, а также как можно дольше оставайтесь на раздаче! Для того, чтобы скачать сам торрент-файл (который видит больше источников), а также для того, чтобы поблагодарить релизера, вам необходимо зарегистрироваться. Если регистрироваться лень - вы можете также попробовать скачать релиз по нашим партнерским ссылкам ниже.

[underverse.su].t28507.torrent
Трекер: Зарегистрирован   [ 17.06.2013 17:20 ]  

Статус: проверено (by матроскин at 17.06.2013 17:23)
Поблагодарили: 1 человек
Тип торрента: публичный - доступные источники с открытых трекеров: 
Размер: 647 MB (занимает 0,14 DVDR, для записи нужно 1 болванка DVDR/RW)
 
 
Похожие темы
Форум Тема Автор Торрент Отв. Посл. сооб.
xUSSR сериалы Анна Герман. Тайна белого ангела (1-10 серии из 10) (Вальдемар Кшистек, Александр Тименко) [2012 г., драма, биография, BDRip] nemos
0 | 0

0 | 474

2

29.09.2014 21:03

матроскин Пол:Муж

17-Июн-2013 17:23


Яндекс.Метрика powered by Sphinx


В Н И М А Н И Е
Сайт не распространяет и не хранит электронные версии произведений, а лишь бесплатно и без коммерческой выгоды (не требуя взамен платы,
SMS и т.д.) предоставляет доступ к создаваемому пользователями каталогу ссылок на торрент-файлы, которые содержат только списки хеш-сумм.
Убедительная просьба с жалобами обращаться напрямую к пользователю, разместившему торрент файл.

Вверх