Loading...
Error

Спецназ - лекарство от терроризма [2010 г., документальный, военный, TVRip]

Статистика раздачи
Размер:  323 MB   |    Зарегистрирован:  3 года 5 месяцев   |    Скачан:  17 раз
Сидов:  2  |  0 KB/s  ]   Личеров:  0  |  0 KB/s  ]

* - сиды/пиры с внешних источников

   
 
Автор Сообщение

матроскин Пол:Муж

17-Июн-2013 15:39

Спецназ - лекарство от терроризма


Год выпуска: 2010
Жанр: документальный, военный
Страна: Россия
Режиссер: Владимир Макарихин
Выпущено: Третий канал ТВЦ
Сюжет фильма:
В фильме речь пойдет о солдатах и офицерах спецназа Внутренних войск Северного Кавказа, о их службе и о борьбе с боевиками и террористами.
Качество видео: TVRip

Продолжительность: 00:26:21
Формат: avi
Видео: DivX 5, 704x528, 1477 kbps
Аудио: русский, оригинал, MP3 2.0, 224 kbps

Код:

General
Complete name                    : C:\Users\Security\Desktop\Спецназ-лекарство от тер.avi
Format                           : AVI
Format/Info                      : Audio Video Interleave
File size                        : 323 MiB
Duration                         : 26mn 21s
Overall bit rate                 : 1 712 Kbps
Writing library                  : VirtualDub-MPEG2 build 24600/release

Video
ID                               : 0
Format                           : MPEG-4 Visual
Format settings, BVOP            : Yes
Format settings, QPel            : No
Format settings, GMC             : No warppoints
Format settings, Matrix          : Default (H.263)
Codec ID                         : DX50
Codec ID/Hint                    : DivX 5
Duration                         : 26mn 21s
Bit rate                         : 1 478 Kbps
Width                            : 704 pixels
Height                           : 528 pixels
Display aspect ratio             : 4/3
Frame rate                       : 25.000 fps
Resolution                       : 24 bits
Colorimetry                      : 4:2:0
Scan type                        : Progressive
Bits/(Pixel*Frame)               : 0.159
Stream size                      : 279 MiB (86%)
Writing library                  : DivX 6.8.5

Audio
ID                               : 1
Format                           : MPEG Audio
Format version                   : Version 1
Format profile                   : Layer 3
Codec ID                         : 55
Codec ID/Hint                    : MP3
Duration                         : 26mn 21s
Bit rate mode                    : Constant
Bit rate                         : 224 Kbps
Channel(s)                       : 2 channels
Sampling rate                    : 48.0 KHz
Resolution                       : 16 bits
Stream size                      : 42.2 MiB (13%)
Alignment                        : Split accross interleaves
Interleave, duration             : 40 ms (1.00 video frame)
Interleave, preload duration     : 500 ms

picpicpicpicpicpic
Для увеличения картинки щелкните мышкой по превью

Этот торрент недоступен для скачивания без регистрации, однако доступен по публичной magnet-ссылке (источники с публичных трекеров). Перед использованием ссылки прочтите, пожалуйста Пользовательское соглашение, а также как можно дольше оставайтесь на раздаче! Для того, чтобы скачать сам торрент-файл (который видит больше источников), а также для того, чтобы поблагодарить релизера, вам необходимо зарегистрироваться. Если регистрироваться лень - вы можете также попробовать скачать релиз по нашим партнерским ссылкам ниже.

[underverse.su].t28501.torrent
Трекер: Зарегистрирован   [ 17.06.2013 15:39 ]  

Статус: проверено (by матроскин at 17.06.2013 15:43)
Поблагодарили: 3 человека
Тип торрента: публичный - доступные источники с открытых трекеров: 
Размер: 323 MB (занимает 0,07 DVDR, для записи нужно 1 болванка DVDR/RW)
 
 

матроскин Пол:Муж

17-Июн-2013 15:43

Качайте и смотрите интересное документальное кино

mixai1 Пол:Муж

21-Сен-2013 08:49

:(
неделю держу комп включенным и немогу скачать этот фильм.
помогите!!!!!
:(

90ytr90 

21-Сен-2013 08:59

mixai1 писал(а):

:(
неделю держу комп включенным и немогу скачать этот фильм.
помогите!!!!!
:(

Цитата:

Полного источника не было: 2 дня 4 часа

Яндекс.Метрика powered by Sphinx


В Н И М А Н И Е
Сайт не распространяет и не хранит электронные версии произведений, а лишь бесплатно и без коммерческой выгоды (не требуя взамен платы,
SMS и т.д.) предоставляет доступ к создаваемому пользователями каталогу ссылок на торрент-файлы, которые содержат только списки хеш-сумм.
Убедительная просьба с жалобами обращаться напрямую к пользователю, разместившему торрент файл.

Вверх