Loading...
Error

Земные следы пришельцев [2013 г., документальный, TVRip]

Статистика раздачи
Размер:  559 MB   |    Зарегистрирован:  3 года 5 месяцев   |    Скачан:  20 раз
Сидов:  1  |  0 KB/s  ]   Личеров:  0  |  0 KB/s  ]

* - сиды/пиры с внешних источников

   
 
Автор Сообщение

матроскин Пол:Муж

17-Июн-2013 15:04

Земные следы пришельцев


Год выпуска: 2013
Жанр: документальный
Страна: Россия
Выпущено: Телеканал РЕН-ТВ
Сюжет фильма:
Есть загадочные места, где тысячи лет назад кто-то оставил странные знаки на скалах, стенах храмов, страницах древних манускриптов. Может, это послания иных цивилизаций? Как связаться с братьями по разуму? Стоит ли доверять людям, которые утверждают, что контактировали с пришельцами?
Качество видео: TVRip

Продолжительность: 00:47:45
Формат: avi
Видео: DivX 5, 704x400, 1499 kbps
Аудио: русский, оригинал, MP3 2.0, 128 kbps

Код:

General
Complete name                    : C:\Users\Security\Desktop\Земные следы пришел.avi
Format                           : AVI
Format/Info                      : Audio Video Interleave
File size                        : 559 MiB
Duration                         : 47mn 45s
Overall bit rate                 : 1 637 Kbps
Writing application              : VirtualDubMod 1.5.10.2 (build 2540/release)
Writing library                  : VirtualDub build 29808/release

Video
ID                               : 0
Format                           : MPEG-4 Visual
Format settings, BVOP            : Yes
Format settings, QPel            : No
Format settings, GMC             : No warppoints
Format settings, Matrix          : Default (H.263)
Muxing mode                      : Packed bitstream
Codec ID                         : DX50
Codec ID/Hint                    : DivX 5
Duration                         : 47mn 45s
Bit rate                         : 1 499 Kbps
Width                            : 704 pixels
Height                           : 400 pixels
Display aspect ratio             : 16/9
Frame rate                       : 25.000 fps
Resolution                       : 24 bits
Colorimetry                      : 4:2:0
Scan type                        : Progressive
Bits/(Pixel*Frame)               : 0.213
Stream size                      : 512 MiB (92%)
Writing library                  : DivX 6.8.5

Audio
ID                               : 1
Format                           : MPEG Audio
Format version                   : Version 1
Format profile                   : Layer 3
Codec ID                         : 55
Codec ID/Hint                    : MP3
Duration                         : 47mn 45s
Bit rate mode                    : Constant
Bit rate                         : 128 Kbps
Channel(s)                       : 2 channels
Sampling rate                    : 48.0 KHz
Resolution                       : 16 bits
Stream size                      : 43.7 MiB (8%)
Alignment                        : Aligned on interleaves
Interleave, duration             : 40 ms (1.00 video frame)
Interleave, preload duration     : 504 ms
Writing library                  : LAME3.90.3

picpicpicpicpicpic
Для увеличения картинки щелкните мышкой по превью

Этот торрент недоступен для скачивания без регистрации, однако доступен по публичной magnet-ссылке (источники с публичных трекеров). Перед использованием ссылки прочтите, пожалуйста Пользовательское соглашение, а также как можно дольше оставайтесь на раздаче! Для того, чтобы скачать сам торрент-файл (который видит больше источников), а также для того, чтобы поблагодарить релизера, вам необходимо зарегистрироваться. Если регистрироваться лень - вы можете также попробовать скачать релиз по нашим партнерским ссылкам ниже.

[underverse.su].t28499.torrent
Трекер: Зарегистрирован   [ 17.06.2013 15:04 ]  

Статус: проверено (by матроскин at 17.06.2013 15:06)
Поблагодарили: 2 человека
Тип торрента: публичный - доступные источники с открытых трекеров: 
Размер: 559 MB (занимает 0,12 DVDR, для записи нужно 1 болванка DVDR/RW)
 
 

матроскин Пол:Муж

17-Июн-2013 15:05


Яндекс.Метрика powered by Sphinx


В Н И М А Н И Е
Сайт не распространяет и не хранит электронные версии произведений, а лишь бесплатно и без коммерческой выгоды (не требуя взамен платы,
SMS и т.д.) предоставляет доступ к создаваемому пользователями каталогу ссылок на торрент-файлы, которые содержат только списки хеш-сумм.
Убедительная просьба с жалобами обращаться напрямую к пользователю, разместившему торрент файл.

Вверх