Loading...
Error

Легенды мирового кино - Евгений Леонов [2013 г., документальный, биография, TVRip]

Статистика раздачи
Размер:  316 MB   |    Зарегистрирован:  3 года 5 месяцев   |    Скачан:  9 раз

Полного источника не было: 10 месяцев

Сидов:  0  |  0 KB/s  ]   Личеров:  0  |  0 KB/s  ]

* - сиды/пиры с внешних источников

   
 
Автор Сообщение

матроскин Пол:Муж

14-Июн-2013 10:10

Легенды мирового кино - Евгений Леонов


Год выпуска: 2013
Жанр: документальный, биография
Страна: Россия
Режиссер: Андрей Истратов
Выпущено: Телеканал "Культура"
Сюжет фильма:
Выпуск посвящен артисту театра и кино Евгению Павловичу Леонову, народному артисту СССР, лауреату Государственной премии СССР и Государственной премии РФ. В детстве он мечтал стать полярным летчиком. С авиацией, была связана вся семья Леоновых: отец и мать работали на авиазаводе. После 7 класса пошел на завод учеником токаря и Евгений. А после смены по вечерам тайком искал театральную студию. Наконец поступил - в училище Художественного театра. А спустя время, стал актером Театра имени Станиславского. Но для кино открыл Леонова режиссер Владимир Фетин. Он предложил Леонову яркую комическую роль в фильме "Полосатый рейс" - буфетчика Шулейкина, выдавшего себя за укротителя тигров. Спустя три года Фетин пригласил Леонова на драматическую роль в мелодраме "Донская повесть" по рассказам Михаила Шолохова. Теперь привычные комедийные роли Леонова все чаще стали наполняться трагикомическими красками. Таким, например, стал его Иван Травкин в знаменитой комедии Георгия Данелии "Тридцать три". Затем последовали роли в комедии В. Мережко «Зареченские женихи» (сват Коротейка), в лирической драме П. Тодоровского "Фокусник" (Рассомахин), в сказке Г. Казанского "Снежная королева" (король), в киноромане В. Фетина "Виринея" (Михайло) и многие другие.
Качество видео: TVRip

Продолжительность: 00:25:56
Формат: avi
Видео: XviD, 704x528, 1564 kbps
Аудио: русский, оригинал, MP3 2.0, 128 kbps

Код:

General
Complete name                    : C:\Users\Security\Desktop\Евгений Леонов..avi
Format                           : AVI
Format/Info                      : Audio Video Interleave
File size                        : 316 MiB
Duration                         : 25mn 56s
Overall bit rate                 : 1 703 Kbps
Writing application              : VirtualDubMod 1.5.10.2 (build 2540/release)
Writing library                  : VirtualDubMod build 2540/release

Video
ID                               : 0
Format                           : MPEG-4 Visual
Format profile                   : Streaming Video@L1
Format settings, BVOP            : Yes
Format settings, QPel            : No
Format settings, GMC             : No warppoints
Format settings, Matrix          : Default (MPEG)
Codec ID                         : XVID
Codec ID/Hint                    : XviD
Duration                         : 25mn 56s
Bit rate                         : 1 565 Kbps
Width                            : 704 pixels
Height                           : 528 pixels
Display aspect ratio             : 4/3
Frame rate                       : 25.000 fps
Resolution                       : 24 bits
Colorimetry                      : 4:2:0
Scan type                        : Progressive
Bits/(Pixel*Frame)               : 0.168
Stream size                      : 290 MiB (92%)
Writing library                  : XviD 1.2.1 (UTC 2008-12-04)

Audio
ID                               : 1
Format                           : MPEG Audio
Format version                   : Version 1
Format profile                   : Layer 3
Codec ID                         : 55
Codec ID/Hint                    : MP3
Duration                         : 25mn 56s
Bit rate mode                    : Constant
Bit rate                         : 128 Kbps
Channel(s)                       : 2 channels
Sampling rate                    : 48.0 KHz
Resolution                       : 16 bits
Stream size                      : 23.7 MiB (8%)
Alignment                        : Aligned on interleaves
Interleave, duration             : 40 ms (1.00 video frame)
Interleave, preload duration     : 504 ms
Writing library                  : LAME3.99r
Encoding settings                : -m s -V 4 -q 2 -lowpass 17 -b 128

picpicpicpicpicpic
Для увеличения картинки щелкните мышкой по превью

Этот торрент недоступен для скачивания без регистрации, однако доступен по публичной magnet-ссылке (источники с публичных трекеров). Перед использованием ссылки прочтите, пожалуйста Пользовательское соглашение, а также как можно дольше оставайтесь на раздаче! Для того, чтобы скачать сам торрент-файл (который видит больше источников), а также для того, чтобы поблагодарить релизера, вам необходимо зарегистрироваться. Если регистрироваться лень - вы можете также попробовать скачать релиз по нашим партнерским ссылкам ниже.

[underverse.su].t28417.torrent
Трекер: Зарегистрирован   [ 14.06.2013 10:10 ]  

Статус: проверено (by матроскин at 14.06.2013 10:11)
Поблагодарили: 2 человека
Тип торрента: публичный - доступные источники с открытых трекеров: 
Размер: 316 MB (занимает 0,07 DVDR, для записи нужно 1 болванка DVDR/RW)
 
 
Похожие темы
Форум Тема Автор Торрент Отв. Посл. сооб.
Личности Легенды мирового кино. Рената Блюме [2016 г., документальный, биография, кинематограф, SatRip] ARI71
0 | 0

0 | 821

2

24.05.2016 07:54

матроскин Пол:Муж

14-Июн-2013 10:20




Яндекс.Метрика powered by Sphinx


В Н И М А Н И Е
Сайт не распространяет и не хранит электронные версии произведений, а лишь бесплатно и без коммерческой выгоды (не требуя взамен платы,
SMS и т.д.) предоставляет доступ к создаваемому пользователями каталогу ссылок на торрент-файлы, которые содержат только списки хеш-сумм.
Убедительная просьба с жалобами обращаться напрямую к пользователю, разместившему торрент файл.

Вверх