Loading...
Error

Сделано в СССР - Дворец Пионеров [2012 г., документальный, исторический, TVRip]

Статистика раздачи
Размер:  334 MB   |    Зарегистрирован:  3 года 5 месяцев   |    Скачан:  12 раз

Полного источника не было: 6 дней

Сидов:  0  |  0 KB/s  ]   Личеров:  0  |  0 KB/s  ]

* - сиды/пиры с внешних источников

   
 
Автор Сообщение

матроскин Пол:Муж

14-Июн-2013 08:57

Сделано в СССР - Дворец Пионеров


Год выпуска: 2012
Жанр: документальный, исторический
Страна: Россия
Выпущено: Телеканал "Мир"
Сюжет фильма:
После прошедшего всемирного фестиваля молодежи и студентов в Москве в 1957 году, деньги которые остались от этого фестиваля Центральным комитетом комсомола было решено потратить на строительство Дворца Пионеров в Москве. И 29 октября 1958 года был заложен камень на строительство Дворца Пионеров. Советская власть не разворовывала казну как делает нынешняя власть России, а строила Дворцы пионеров для детей, дома отдыха, метрополитен, поликлинники, больницы, дома культуры, жилые дома для народа и заботилось о его воспитании и бесплатном образовании. Это была действительно Народная- Советская власть.
Качество видео: TVRip

Продолжительность: 00:26:06
Формат: avi
Видео: XviD, 704x528, 1647 kbps
Аудио: русский, оригинал, MP3 2.0, 128 kbps

Код:

General
Complete name                    : C:\Users\Security\Desktop\Дворец пионеров (2012).avi
Format                           : AVI
Format/Info                      : Audio Video Interleave
File size                        : 334 MiB
Duration                         : 26mn 6s
Overall bit rate                 : 1 789 Kbps
Movie name                       : Сделано в СССР.
Writing application              : TMPGEnc Video Mastering Works 5 Version. 5.0.6.38
Writing library                  : TMPGEnc Video Mastering Works 5 Version. 5.0.6.38
Comment                          : rip by Roumek & BigFANGroup

Video
ID                               : 0
Format                           : MPEG-4 Visual
Format profile                   : Streaming Video@L1
Format settings, BVOP            : Yes
Format settings, QPel            : No
Format settings, GMC             : No warppoints
Format settings, Matrix          : Default (H.263)
Muxing mode                      : Packed bitstream
Codec ID                         : XVID
Codec ID/Hint                    : XviD
Duration                         : 26mn 6s
Bit rate                         : 1 648 Kbps
Width                            : 704 pixels
Height                           : 528 pixels
Display aspect ratio             : 4/3
Frame rate                       : 25.000 fps
Resolution                       : 24 bits
Colorimetry                      : 4:2:0
Scan type                        : Progressive
Bits/(Pixel*Frame)               : 0.177
Stream size                      : 308 MiB (92%)
Writing library                  : XviD 1.2.1 (UTC 2008-12-04)

Audio
ID                               : 1
Format                           : MPEG Audio
Format version                   : Version 1
Format profile                   : Layer 3
Codec ID                         : 55
Codec ID/Hint                    : MP3
Duration                         : 26mn 6s
Bit rate mode                    : Constant
Bit rate                         : 128 Kbps
Channel(s)                       : 2 channels
Sampling rate                    : 48.0 KHz
Resolution                       : 16 bits
Stream size                      : 23.9 MiB (7%)
Alignment                        : Aligned on interleaves
Interleave, duration             : 40 ms (1.00 video frame)
Interleave, preload duration     : 384 ms

picpicpicpicpicpic
Для увеличения картинки щелкните мышкой по превью

Этот торрент недоступен для скачивания без регистрации, однако доступен по публичной magnet-ссылке (источники с публичных трекеров). Перед использованием ссылки прочтите, пожалуйста Пользовательское соглашение, а также как можно дольше оставайтесь на раздаче! Для того, чтобы скачать сам торрент-файл (который видит больше источников), а также для того, чтобы поблагодарить релизера, вам необходимо зарегистрироваться. Если регистрироваться лень - вы можете также попробовать скачать релиз по нашим партнерским ссылкам ниже.

[underverse.su].t28414.torrent
Трекер: Зарегистрирован   [ 14.06.2013 08:57 ]  

Статус: проверено (by матроскин at 14.06.2013 08:59)
Поблагодарили: 1 человек
Тип торрента: публичный - доступные источники с открытых трекеров: 
Размер: 334 MB (занимает 0,07 DVDR, для записи нужно 1 болванка DVDR/RW)
 
 

матроскин Пол:Муж

14-Июн-2013 10:22



udachka Пол:Жен

21-Июн-2013 22:59

всегда мечтала в нем работать! .. спасибо огромное , это просто мне подарок!!! спасибо!

матроскин Пол:Муж

22-Июн-2013 21:10

udachka писал(а):

всегда мечтала в нем работать! .. спасибо огромное , это просто мне подарок!!! спасибо!
Пожалуйста.

Яндекс.Метрика powered by Sphinx


В Н И М А Н И Е
Сайт не распространяет и не хранит электронные версии произведений, а лишь бесплатно и без коммерческой выгоды (не требуя взамен платы,
SMS и т.д.) предоставляет доступ к создаваемому пользователями каталогу ссылок на торрент-файлы, которые содержат только списки хеш-сумм.
Убедительная просьба с жалобами обращаться напрямую к пользователю, разместившему торрент файл.

Вверх