Loading...
Error

Марш-бросок (Николай Стамбула) [2003 г., боевик, драма, мелодрама, военный, DVDRip]

Статистика раздачи
Размер:  1,37 GB   |    Зарегистрирован:  3 года 5 месяцев   |    Скачан:  60 раз

Полного источника не было: 1 месяц 17 дней

Сидов:  0  |  0 KB/s  ]   Личеров:  0  |  0 KB/s  ]

* - сиды/пиры с внешних источников

   
 
Автор Сообщение

nemos Пол:Муж

14-Июн-2013 07:14

Марш-бросок


Год выпуска: 2003
Жанр: боевик, драма, мелодрама, военный
Страна: Россия
Режиссер: Николай Стамбула
В ролях: Владимир Волга, Ольга Чурсина, Федор Смирнов, Александр Балуев, Сергей Гармаш, Сергей Болотаев, Евгений Косырев, Марат Гацалов, Александр Прудников, Дмитрий Дьяконов
Сюжет фильма:
Молодой человек, воспитанник детского дома, стремится попасть на чеченскую войну, искренне веря, что именно там его место, и в этих тяжелых условиях он сможет проявить себя. Пройдя подготовку, Александр попадает в элитные войска спецназа и отправляется навстречу суровым испытаниям, которые ждут его на войне.

Он не изменяет своим жизненным принципам и проявляет себя как герой и настоящий мужчина, который не станет предателем, даже если от этого зависит его жизнь. А такие понятия, как настоящая мужская дружба, любовь и благородство — ценности вечные.

Преодолев все препятствия, познав боль потерь, герой находит свою любовь, обретает дом, где его будут ждать, куда он вернется с войны…


Качество видео: DVDRip

Продолжительность: 01:50:00
Формат: AVI
Видео: XviD, 704 x 416, 1320 kbps
Аудио: русский, AC3 5.1, 448 kbps

Код:

E:\С underverse-3 Фильмы\Marsh-brosok.2003.DVDRip.avi
   General
      Complete name : E:\С underverse-3 Фильмы\Marsh-brosok.2003.DVDRip.avi
      Format : AVI
      Format/Info : Audio Video Interleave
      File size : 1.37 GiB
      Duration : 1h 50mn
      Overall bit rate : 1 775 Kbps
      Writing application : VirtualDubMod 1.5.4.1 (build 2178/release)
      Writing library : VirtualDubMod build 2178/release
   Video #0
      ID : 0
      Format : MPEG-4 Visual
      Format profile : Advanced Simple@L5
      Format settings, BVOP : 1
      Format settings, QPel : No
      Format settings, GMC : No warppoints
      Format settings, Matrix : Custom
      Codec ID : XVID
      Codec ID/Hint : XviD
      Duration : 1h 50mn
      Bit rate : 1 320 Kbps
      Width : 704 pixels
      Height : 416 pixels
      Display aspect ratio : 1.692
      Frame rate : 25.000 fps
      Color space : YUV
      Chroma subsampling : 4:2:0
      Bit depth : 8 bits
      Scan type : Progressive
      Compression mode : Lossy
      Bits/(Pixel*Frame) : 0.180
      Stream size : 1.02 GiB (74%)
      Writing library : XviD 1.2.0.dev47 (UTC 2006-11-01)
   Audio #1
      ID : 1
      Format : AC-3
      Format/Info : Audio Coding 3
      Mode extension : CM (complete main)
      Format settings, Endianness : Big
      Codec ID : 2000
      Duration : 1h 50mn
      Bit rate mode : Constant
      Bit rate : 448 Kbps
      Channel(s) : 6 channels
      Channel positions : Front: L C R, Side: L R, LFE
      Sampling rate : 48.0 KHz
      Bit depth : 16 bits
      Compression mode : Lossy
      Stream size : 353 MiB (25%)
      Alignment : Split accross interleaves
      Interleave, duration : 96 ms (2.40 video frames)
      Interleave, preload duration : 96 ms
      Language : Russian
Семпл: http://multi-up.com/875291

picpicpicpicpicpicpicpicpicpicpic
Для увеличения картинки щелкните мышкой по превью
фильм который был выложен и зарегистрирован более двух месяцев назад буду раздавать с 23.00ч до 06.00ч утра ( вина в этом немоя, а пользователей которые неподдерживают раздачу)

Этот торрент недоступен для скачивания без регистрации, однако доступен по публичной magnet-ссылке (источники с публичных трекеров). Перед использованием ссылки прочтите, пожалуйста Пользовательское соглашение, а также как можно дольше оставайтесь на раздаче! Для того, чтобы скачать сам торрент-файл (который видит больше источников), а также для того, чтобы поблагодарить релизера, вам необходимо зарегистрироваться. Если регистрироваться лень - вы можете также попробовать скачать релиз по нашим партнерским ссылкам ниже.

[underverse.su].t28408.torrent
Трекер: Зарегистрирован   [ 14.06.2013 07:14 ]  

Статус: проверено (by матроскин at 14.06.2013 07:22)
Поблагодарили: 4 человека
Тип торрента: публичный - доступные источники с открытых трекеров: 
Размер: 1,37 GB (занимает 0,31 DVDR, для записи нужно 1 болванка DVDR/RW)
 
 
Похожие темы
Форум Тема Автор Торрент Отв. Посл. сооб.
xUSSR сериалы Марш-бросок 2: Особые обстоятельства / Серии 1-2 (2) (Владимир Янковский) [2013 г., Драма, SatRip] Чертёнок
3 | 0

0 | 688

42

12.06.2013 15:23

xUSSR сериалы Марш-Бросок 3: Охота на "Охотника" (1-4 серии из 4) (Владимир Кильбург) [2015 г., Криминал, SatRip] nemos
1 | 0

0 | 1002

45

18.03.2015 07:10

Наше кино [HDDVDRip / BDRip / WEB-DL / HDTV 1080/720р] Марш-бросок 2: Особые обстоятельства / Серии 1-2 (2) (Владимир Янковский) [2013 г., Боевик, Криминал, Приключения, HDTV 1080p] nemos
0 | 0

2 | 2849

74

29.06.2013 09:49

xUSSR сериалы [BD / Remux / BDRip / WEB-DL / HDTV 1080/720р] Марш-Бросок 3: Охота на "Охотника" (2 серии из 2) (Владимир Кильбург) [2015 г., Криминал, HDTVRip 1080i] nemos
2 | 0

0 | 781

10

18.03.2015 06:52



Последний раз редактировалось: nemos (03.10.2013 07:05), всего редактировалось 2 раз(а)

14-Июн-2013 10:02

Топик был перенесен из форума xUSSR сериалы в форум Наше кино [DVDRip, Low-Res HDRip, и т.д.]


dj_maxx
 

Яндекс.Метрика powered by Sphinx


В Н И М А Н И Е
Сайт не распространяет и не хранит электронные версии произведений, а лишь бесплатно и без коммерческой выгоды (не требуя взамен платы,
SMS и т.д.) предоставляет доступ к создаваемому пользователями каталогу ссылок на торрент-файлы, которые содержат только списки хеш-сумм.
Убедительная просьба с жалобами обращаться напрямую к пользователю, разместившему торрент файл.

Вверх